<?xml version="1.0" standalone="no"?>
<!DOCTYPE svg PUBLIC "-//W3C//DTD SVG 1.1//EN" "http://www.w3.org/Graphics/SVG/1.1/DTD/svg11.dtd" >
<svg>
<metadata>
Created by FontForge 20120731 at Thu Dec 13 10:46:12 2018
 By www-data
Brought to you by The Institute for Applied Piracy.  For personal / evaluation use only.  Never use pirated fonts in commercial works.  Please buy a license if you like this typeface and/or if you plan to use it commercially.
</metadata>
<defs>
<font id="GothamPro-Regular" horiz-adv-x="500" >
  <font-face 
    font-family="Gotham Pro"
    font-weight="400"
    font-stretch="normal"
    units-per-em="1000"
    panose-1="2 0 5 3 4 0 0 2 0 4"
    ascent="800"
    descent="-200"
    x-height="517"
    cap-height="700"
    bbox="-68 -196 1158 907"
    underline-thickness="20"
    underline-position="-113"
    stemh="71"
    stemv="79"
    unicode-range="U+0020-FB04"
  />
<missing-glyph 
d="M0 0v700h500v-700h-500zM81 49h339l-170 255zM49 96l171 254l-171 254v-508zM450 96v508l-171 -254zM250 395l170 255h-339z" />
    <glyph glyph-name="fi" unicode="fi" horiz-adv-x="631" 
d="M115 0v449h-71v67h71v45c0 59 16 104 45 133c26 26 64 40 111 40c36 0 60 -4 85 -13v-67c-28 8 -49 13 -75 13c-60 0 -90 -36 -90 -110v-42h164v-66h-163v-449h-77zM461 0v517h76v-517h-76zM455 630v85h88v-85h-88z" />
    <glyph glyph-name="fl" unicode="fl" horiz-adv-x="631" 
d="M115 0v449h-71v67h71v45c0 59 16 104 45 133c26 26 64 40 111 40c36 0 60 -4 85 -13v-67c-28 8 -49 13 -75 13c-60 0 -90 -36 -90 -110v-42h164v-66h-163v-449h-77zM461 0v730h76v-730h-76z" />
    <glyph glyph-name="ffi" unicode="ffi" horiz-adv-x="998" 
d="M115 0v449h-71v67h71v45c0 59 16 104 45 133c26 26 64 40 111 40c36 0 60 -4 85 -13v-67c-28 8 -49 13 -75 13c-60 0 -90 -36 -90 -110v-42h164v-66h-163v-449h-77zM483 0v449h-71v67h71v45c0 59 15 104 44 133c27 26 64 40 111 40c36 0 61 -4 85 -13v-67
c-27 8 -48 13 -74 13c-61 0 -90 -36 -90 -110v-42h163v-66h-163v-449h-76zM828 0v517h77v-517h-77zM823 630v85h87v-85h-87z" />
    <glyph glyph-name="ffl" unicode="ffl" horiz-adv-x="998" 
d="M115 0v449h-71v67h71v45c0 59 16 104 45 133c26 26 64 40 111 40c36 0 60 -4 85 -13v-67c-28 8 -49 13 -75 13c-60 0 -90 -36 -90 -110v-42h164v-66h-163v-449h-77zM483 0v449h-71v67h71v45c0 59 15 104 44 133c27 26 64 40 111 40c36 0 61 -4 85 -13v-67
c-27 8 -48 13 -74 13c-61 0 -90 -36 -90 -110v-42h163v-66h-163v-449h-76zM828 0v730h77v-730h-77z" />
    <glyph glyph-name=".notdef" 
d="M0 0v700h500v-700h-500zM81 49h339l-170 255zM49 96l171 254l-171 254v-508zM450 96v508l-171 -254zM250 395l170 255h-339z" />
    <glyph glyph-name="space" unicode=" " horiz-adv-x="300" 
 />
    <glyph glyph-name="exclam" unicode="!" horiz-adv-x="271" 
d="M114 198l-23 445v57h90v-57l-24 -445h-43zM90 0v105h92v-105h-92z" />
    <glyph glyph-name="quotedbl" unicode="&#x22;" horiz-adv-x="440" 
d="M260 428l31 272h92v-5l-81 -267h-42zM65 428l30 272h93v-5l-81 -267h-42z" />
    <glyph glyph-name="numbersign" unicode="#" horiz-adv-x="700" 
d="M124 0l30 177h-109v69h121l37 212h-119v69h130l30 173h70l-29 -173h190l30 173h70l-29 -173h108v-69h-120l-37 -212h118v-69h-129l-31 -177h-70l30 177h-190l-31 -177h-70zM237 246h190l36 212h-190z" />
    <glyph glyph-name="dollar" unicode="$" horiz-adv-x="636" 
d="M292 -98v100c-89 8 -166 43 -236 103l45 60c60 -54 119 -87 194 -95v250c-148 35 -213 90 -213 196c0 103 87 178 210 184v58h64v-60c75 -7 133 -35 191 -80l-43 -60c-48 41 -98 63 -151 72v-246c152 -35 216 -93 216 -196c0 -107 -87 -180 -213 -188v-98h-64zM295 398
v235c-84 -3 -136 -51 -136 -114c0 -56 26 -93 136 -121zM353 67c85 4 139 51 139 118c0 59 -28 94 -139 121v-239z" />
    <glyph glyph-name="percent" unicode="%" horiz-adv-x="834" 
d="M210 350c-95 0 -158 83 -158 179c0 95 64 179 160 179c94 0 157 -83 157 -179c0 -95 -64 -179 -159 -179zM124 0l514 700h71l-513 -700h-72zM622 -8c-94 0 -157 83 -157 179c0 95 64 179 159 179s157 -83 157 -179c0 -95 -63 -179 -159 -179zM212 406c54 0 91 54 91 123
c0 70 -42 123 -93 123c-55 0 -91 -55 -91 -123c0 -70 41 -123 93 -123zM624 48c55 0 91 54 91 123c0 70 -41 123 -93 123c-54 0 -91 -55 -91 -123c0 -70 41 -123 93 -123z" />
    <glyph glyph-name="ampersand" unicode="&#x26;" horiz-adv-x="696" 
d="M604 -14l-110 113c-64 -69 -138 -109 -229 -109c-126 0 -220 79 -220 198c0 93 62 160 169 202c-48 56 -70 99 -70 156c0 92 74 166 185 166c98 0 170 -71 170 -160s-63 -146 -165 -182l160 -163c31 45 59 98 84 156l65 -30c-31 -66 -63 -126 -101 -176l122 -125z
M290 415c89 30 135 73 135 135c0 56 -42 97 -99 97c-63 0 -106 -44 -106 -103c0 -41 17 -72 70 -129zM271 57c66 0 124 35 175 91l-187 193c-93 -34 -134 -91 -134 -152c0 -75 60 -132 146 -132z" />
    <glyph glyph-name="quotesingle" unicode="'" horiz-adv-x="245" 
d="M65 428l30 272h94v-5l-81 -267h-43z" />
    <glyph glyph-name="parenleft" unicode="(" horiz-adv-x="434" 
d="M345 -141c-178 100 -277 244 -277 428s99 328 277 428l33 -51c-152 -97 -232 -217 -232 -377s80 -280 232 -377z" />
    <glyph glyph-name="parenright" unicode=")" horiz-adv-x="434" 
d="M89 -141l-33 51c152 97 232 217 232 377s-80 280 -232 377l33 51c178 -100 277 -244 277 -428s-99 -328 -277 -428z" />
    <glyph glyph-name="asterisk" unicode="*" horiz-adv-x="430" 
d="M189 397l10 125l-103 -73l-27 47l116 53l-116 54l27 46l103 -72l-10 125h52l-10 -125l103 72l27 -46l-116 -54l116 -53l-27 -47l-103 73l10 -125h-52z" />
    <glyph glyph-name="plus" unicode="+" horiz-adv-x="640" 
d="M283 110v206h-208v72h208v206h74v-206h208v-72h-208v-206h-74z" />
    <glyph glyph-name="comma" unicode="," horiz-adv-x="245" 
d="M58 -122l-12 35c46 17 67 40 67 77v10h-36v105h92v-90c0 -81 -35 -120 -111 -137z" />
    <glyph glyph-name="hyphen" unicode="-" horiz-adv-x="408" 
d="M65 260v81h278v-81h-278z" />
    <glyph glyph-name="period" unicode="." horiz-adv-x="245" 
d="M77 0v105h92v-105h-92z" />
    <glyph glyph-name="slash" unicode="/" horiz-adv-x="508" 
d="M-21 -128l464 926h71l-464 -926h-71z" />
    <glyph glyph-name="zero" unicode="0" horiz-adv-x="715" 
d="M357 -12c-181 0 -295 164 -295 362c0 196 117 362 297 362s294 -164 294 -362c0 -196 -116 -362 -296 -362zM359 60c131 0 212 135 212 290c0 153 -84 290 -214 290c-131 0 -213 -134 -213 -290c0 -153 84 -290 215 -290z" />
    <glyph glyph-name="one" unicode="1" horiz-adv-x="358" 
d="M179 0v623l-132 -41l-19 64l171 59h58v-705h-78z" />
    <glyph glyph-name="two" unicode="2" horiz-adv-x="599" 
d="M48 0v61l254 224c108 95 146 150 146 220c0 82 -65 134 -141 134c-80 0 -132 -42 -188 -120l-58 42c63 94 129 149 252 149c126 0 217 -84 217 -200c0 -102 -55 -164 -177 -272l-187 -166h371v-72h-489z" />
    <glyph glyph-name="three" unicode="3" horiz-adv-x="613" 
d="M311 -12c-117 0 -204 51 -261 125l57 51c54 -66 119 -104 205 -104c85 0 153 54 153 138c0 87 -81 135 -196 135h-45l-16 47l221 249h-342v71h447v-58l-220 -244c122 -10 231 -69 231 -199c0 -125 -104 -211 -234 -211z" />
    <glyph glyph-name="four" unicode="4" horiz-adv-x="671" 
d="M432 0v166h-369l-20 57l396 482h69v-473h109v-66h-109v-166h-76zM138 232h294v361z" />
    <glyph glyph-name="five" unicode="5" horiz-adv-x="612" 
d="M303 -12c-100 0 -187 48 -250 111l52 57c61 -59 128 -96 199 -96c100 0 169 66 169 157c0 87 -72 147 -174 147c-59 0 -106 -18 -147 -40l-53 35l20 341h403v-73h-334l-15 -224c41 18 80 31 138 31c136 0 242 -81 242 -216c0 -137 -104 -230 -250 -230z" />
    <glyph glyph-name="six" unicode="6" horiz-adv-x="647" 
d="M333 -12c-157 0 -272 95 -272 344c0 213 108 380 291 380c84 0 146 -30 207 -80l-46 -61c-52 44 -101 69 -165 69c-126 0 -205 -127 -205 -306v-3c38 56 97 107 199 107c130 0 242 -84 242 -217c0 -135 -109 -233 -251 -233zM334 58c103 0 169 71 169 162
c0 86 -70 150 -171 150c-105 0 -175 -75 -175 -155c0 -89 74 -157 177 -157z" />
    <glyph glyph-name="seven" unicode="7" horiz-adv-x="596" 
d="M137 0l316 628h-385v72h475v-59l-318 -641h-88z" />
    <glyph glyph-name="eight" unicode="8" horiz-adv-x="630" 
d="M315 -10c-149 0 -263 81 -263 200c0 83 60 142 144 172c-65 30 -120 80 -120 163c0 108 111 185 239 185s239 -77 239 -187c0 -81 -55 -131 -120 -161c83 -31 144 -88 144 -173c0 -119 -114 -199 -263 -199zM315 390c89 0 160 52 160 130c0 69 -69 121 -160 121
s-160 -51 -160 -123c0 -76 71 -128 160 -128zM315 59c115 0 183 60 183 133c0 78 -81 133 -183 133s-183 -55 -183 -135c0 -71 68 -131 183 -131z" />
    <glyph glyph-name="nine" unicode="9" horiz-adv-x="647" 
d="M295 -12c-91 0 -157 37 -216 86l46 61c57 -50 110 -75 172 -75c124 0 208 124 208 298v9c-38 -61 -101 -112 -198 -112c-144 0 -244 91 -244 219c0 133 103 238 252 238c154 0 271 -93 271 -345c0 -222 -118 -379 -291 -379zM316 323c107 0 174 78 174 160
c0 89 -73 159 -178 159s-168 -77 -168 -166s70 -153 172 -153z" />
    <glyph glyph-name="colon" unicode=":" horiz-adv-x="255" 
d="M82 412v105h92v-105h-92zM82 0v105h92v-105h-92z" />
    <glyph glyph-name="semicolon" unicode=";" horiz-adv-x="255" 
d="M82 412v105h92v-105h-92zM63 -122l-12 35c46 17 67 40 67 77v10h-36v105h92v-90c0 -81 -35 -120 -111 -137z" />
    <glyph glyph-name="less" unicode="&#x3c;" horiz-adv-x="640" 
d="M541 86l-469 233v66l469 233v-77l-385 -188l385 -189v-78z" />
    <glyph glyph-name="equal" unicode="=" horiz-adv-x="640" 
d="M90 432v74h460v-74h-460zM90 198v74h460v-74h-460z" />
    <glyph glyph-name="greater" unicode="&#x3e;" horiz-adv-x="640" 
d="M99 86v77l385 188l-385 189v78l469 -233v-66z" />
    <glyph glyph-name="question" unicode="?" horiz-adv-x="537" 
d="M220 198l-15 162l5 5c130 3 199 57 199 143c0 72 -56 130 -146 130c-74 0 -131 -35 -182 -94l-51 49c57 69 128 116 235 116c135 0 224 -84 224 -200c0 -125 -94 -187 -208 -203l-10 -108h-51zM199 0v105h92v-105h-92z" />
    <glyph glyph-name="at" unicode="@" horiz-adv-x="980" 
d="M499 -162c-256 0 -446 197 -446 436s193 438 438 438s436 -187 436 -396c0 -170 -95 -245 -187 -245c-73 0 -121 34 -140 84c-39 -46 -90 -84 -165 -84c-98 0 -179 72 -179 182c0 142 118 249 231 249c78 0 122 -41 146 -83l13 69l67 -9l-40 -227c-5 -28 -7 -50 -7 -61
c0 -51 31 -81 85 -81c71 0 140 64 140 206c0 184 -171 362 -400 362c-230 0 -402 -182 -402 -404c0 -223 170 -402 410 -402c100 0 172 23 249 68l16 -27c-77 -47 -161 -75 -265 -75zM450 133c86 0 164 86 164 180c0 73 -52 127 -122 127c-84 0 -164 -79 -164 -182
c0 -79 51 -125 122 -125z" />
    <glyph glyph-name="A" unicode="A" horiz-adv-x="790" 
d="M39 0l319 705h74l319 -705h-85l-82 185h-381l-83 -185h-81zM234 256h319l-159 357z" />
    <glyph glyph-name="B" unicode="B" horiz-adv-x="722" 
d="M99 0v700h298c80 0 144 -22 183 -62c29 -30 45 -67 45 -114c0 -91 -56 -138 -111 -162c83 -25 150 -73 150 -171c0 -120 -101 -191 -254 -191h-311zM177 388h207c95 0 161 43 161 127c0 69 -55 114 -155 114h-213v-241zM177 71h235c106 0 172 47 172 127
c0 76 -64 120 -186 120h-221v-247z" />
    <glyph glyph-name="C" unicode="C" horiz-adv-x="738" 
d="M419 -12c-202 0 -351 159 -351 362c0 198 148 362 354 362c127 0 201 -47 271 -113l-52 -56c-59 56 -125 96 -220 96c-155 0 -271 -126 -271 -289c0 -162 117 -289 271 -289c96 0 159 37 226 101l52 -55c-73 -74 -153 -119 -280 -119z" />
    <glyph glyph-name="D" unicode="D" horiz-adv-x="782" 
d="M99 0v700h243c220 0 372 -151 372 -350c0 -197 -152 -350 -372 -350h-243zM178 73h164c177 0 290 120 290 277c0 155 -113 277 -290 277h-164v-554z" />
    <glyph glyph-name="E" unicode="E" horiz-adv-x="670" 
d="M99 0v700h506v-72h-427v-239h382v-72h-382v-245h432v-72h-511z" />
    <glyph glyph-name="F" unicode="F" horiz-adv-x="656" 
d="M99 0v700h503v-73h-424v-250h379v-72h-379v-305h-79z" />
    <glyph glyph-name="G" unicode="G" horiz-adv-x="784" 
d="M424 -12c-220 0 -356 160 -356 362c0 192 141 362 351 362c118 0 191 -34 261 -93l-51 -60c-54 47 -114 80 -213 80c-155 0 -266 -131 -266 -289c0 -167 107 -291 277 -291c80 0 154 31 202 70v174h-213v71h289v-279c-65 -58 -163 -107 -281 -107z" />
    <glyph glyph-name="H" unicode="H" horiz-adv-x="760" 
d="M99 0v700h79v-311h404v311h79v-700h-79v315h-404v-315h-79z" />
    <glyph glyph-name="I" unicode="I" horiz-adv-x="291" 
d="M106 0v700h79v-700h-79z" />
    <glyph glyph-name="J" unicode="J" horiz-adv-x="553" 
d="M247 -10c-105 0 -172 52 -216 124l57 49c43 -65 87 -100 160 -100c79 0 137 57 137 168v469h80v-468c0 -82 -24 -144 -64 -184c-39 -38 -92 -58 -154 -58z" />
    <glyph glyph-name="K" unicode="K" horiz-adv-x="719" 
d="M99 0v700h79v-418l402 418h102l-300 -306l313 -394h-99l-269 339l-149 -151v-188h-79z" />
    <glyph glyph-name="L" unicode="L" horiz-adv-x="619" 
d="M99 0v700h79v-627h394v-73h-473z" />
    <glyph glyph-name="M" unicode="M" horiz-adv-x="868" 
d="M99 0v700h80l255 -382l255 382h80v-700h-79v567l-255 -375h-4l-255 374v-566h-77z" />
    <glyph glyph-name="N" unicode="N" horiz-adv-x="790" 
d="M99 0v700h74l441 -561v561h77v-700h-63l-452 574v-574h-77z" />
    <glyph glyph-name="O" unicode="O" horiz-adv-x="850" 
d="M424 -12c-213 0 -356 167 -356 362c0 193 145 362 358 362s356 -167 356 -362c0 -193 -145 -362 -358 -362zM426 61c160 0 274 128 274 289c0 159 -116 289 -276 289s-274 -128 -274 -289c0 -159 116 -289 276 -289z" />
    <glyph glyph-name="P" unicode="P" horiz-adv-x="668" 
d="M99 0v700h262c158 0 262 -84 262 -224c0 -151 -126 -229 -275 -229h-170v-247h-79zM178 319h173c116 0 192 62 192 156c0 100 -75 152 -188 152h-177v-308z" />
    <glyph glyph-name="Q" unicode="Q" horiz-adv-x="850" 
d="M737 -21l-92 84c-59 -47 -134 -75 -221 -75c-213 0 -356 167 -356 362c0 193 145 362 358 362s356 -167 356 -362c0 -88 -30 -171 -84 -235l93 -77zM426 61c62 0 118 20 161 53l-130 111l53 59l129 -117c38 49 61 112 61 183c0 159 -116 289 -276 289
s-274 -128 -274 -289c0 -159 116 -289 276 -289z" />
    <glyph glyph-name="R" unicode="R" horiz-adv-x="723" 
d="M99 0v700h301c86 0 155 -26 199 -70c34 -34 54 -83 54 -140c0 -116 -80 -184 -190 -204l215 -286h-97l-203 272h-200v-272h-79zM178 343h215c105 0 180 54 180 146c0 86 -66 138 -179 138h-216v-284z" />
    <glyph glyph-name="S" unicode="S" horiz-adv-x="640" 
d="M339 -10c-111 0 -202 37 -286 112l49 58c73 -66 143 -99 240 -99c94 0 156 50 156 121c0 65 -35 102 -182 133c-161 35 -235 87 -235 204c0 110 97 191 230 191c102 0 175 -29 246 -86l-46 -61c-65 53 -130 76 -202 76c-91 0 -149 -50 -149 -115c0 -66 36 -103 190 -136
c156 -34 228 -91 228 -200c0 -120 -100 -198 -239 -198z" />
    <glyph glyph-name="T" unicode="T" horiz-adv-x="648" 
d="M284 0v627h-235v73h550v-73h-235v-627h-80z" />
    <glyph glyph-name="U" unicode="U" horiz-adv-x="759" 
d="M379 -11c-173 0 -291 106 -291 304v407h79v-402c0 -151 80 -236 214 -236c129 0 211 78 211 231v407h79v-401c0 -204 -117 -310 -292 -310z" />
    <glyph glyph-name="V" unicode="V" horiz-adv-x="750" 
d="M340 -5l-301 705h88l249 -603l250 603h85l-301 -705h-70z" />
    <glyph glyph-name="W" unicode="W" horiz-adv-x="1107" 
d="M295 -5l-250 705h86l200 -583l192 585h65l192 -585l200 583h83l-250 -705h-67l-192 568l-193 -568h-66z" />
    <glyph glyph-name="X" unicode="X" horiz-adv-x="725" 
d="M46 0l269 357l-259 343h93l215 -286l213 286h92l-259 -342l269 -358h-94l-224 301l-224 -301h-91z" />
    <glyph glyph-name="Y" unicode="Y" horiz-adv-x="716" 
d="M318 0v277l-291 423h96l236 -350l238 350h92l-291 -422v-278h-80z" />
    <glyph glyph-name="Z" unicode="Z" horiz-adv-x="693" 
d="M67 0v53l453 576h-438v71h546v-53l-454 -576h454v-71h-561z" />
    <glyph glyph-name="bracketleft" unicode="[" horiz-adv-x="439" 
d="M94 -130v830h286v-60h-213v-710h213v-60h-286z" />
    <glyph glyph-name="backslash" unicode="\" horiz-adv-x="508" 
d="M458 -128l-464 926h71l464 -926h-71z" />
    <glyph glyph-name="bracketright" unicode="]" horiz-adv-x="439" 
d="M59 -130v60h214v710h-214v60h286v-830h-286z" />
    <glyph glyph-name="asciicircum" unicode="^" 
d="M65 493l155 209h60l155 -209h-68l-118 154l-118 -154h-66z" />
    <glyph glyph-name="underscore" unicode="_" horiz-adv-x="600" 
d="M-2 -160v63h604v-63h-604z" />
    <glyph glyph-name="grave" unicode="`" 
d="M257 595l-113 108l80 37l95 -145h-62z" />
    <glyph glyph-name="a" unicode="a" horiz-adv-x="579" 
d="M240 -11c-97 0 -193 55 -193 163c0 111 90 169 221 169c66 0 112 -9 158 -22v16c0 92 -56 140 -153 140c-61 0 -109 -15 -157 -37l-23 63c57 26 112 44 188 44c73 0 130 -20 167 -57c36 -36 54 -86 54 -152v-316h-76v77c-36 -46 -95 -88 -186 -88zM255 51
c95 0 172 57 172 139v48c-38 11 -88 22 -151 22c-96 0 -151 -42 -151 -106c0 -65 60 -103 130 -103z" />
    <glyph glyph-name="b" unicode="b" horiz-adv-x="664" 
d="M361 -11c-96 0 -158 52 -198 110v-99h-77v730h77v-317c42 62 103 115 198 115c124 0 247 -98 247 -270c0 -169 -122 -269 -247 -269zM347 58c100 0 182 74 182 201c0 122 -84 200 -182 200c-96 0 -187 -81 -187 -201s91 -200 187 -200z" />
    <glyph glyph-name="c" unicode="c" horiz-adv-x="571" 
d="M319 -12c-151 0 -265 123 -265 270c0 146 114 270 265 270c98 0 159 -41 207 -92l-49 -52c-41 43 -89 76 -159 76c-105 0 -185 -89 -185 -202c0 -112 82 -201 190 -201c66 0 115 34 156 78l51 -47c-52 -58 -114 -100 -211 -100z" />
    <glyph glyph-name="d" unicode="d" horiz-adv-x="664" 
d="M303 -11c-124 0 -247 98 -247 270c0 169 123 269 247 269c96 0 158 -52 198 -110v312h77v-730h-77v104c-42 -62 -103 -115 -198 -115zM317 58c96 0 187 81 187 202c0 119 -91 199 -187 199c-100 0 -182 -74 -182 -201c0 -122 84 -200 182 -200z" />
    <glyph glyph-name="e" unicode="e" horiz-adv-x="592" 
d="M132 227c11 -109 91 -172 182 -172c71 0 121 29 163 73l48 -43c-52 -58 -115 -97 -213 -97c-142 0 -258 109 -258 270c0 150 105 270 248 270c153 0 241 -122 241 -274c0 -7 0 -15 -1 -27h-410zM132 289h333c-9 94 -63 174 -165 174c-89 0 -157 -74 -168 -174z" />
    <glyph glyph-name="f" unicode="f" horiz-adv-x="367" 
d="M115 0v449h-71v67h71v45c0 59 16 104 45 133c26 26 64 40 111 40c36 0 60 -4 85 -13v-67c-28 8 -49 13 -75 13c-60 0 -90 -36 -90 -110v-42h164v-66h-163v-449h-77z" />
    <glyph glyph-name="g" unicode="g" horiz-adv-x="664" 
d="M315 -162c-86 0 -166 24 -235 72l35 60c59 -43 125 -66 199 -66c114 0 188 63 188 184v61c-45 -60 -108 -109 -203 -109c-124 0 -243 93 -243 244s120 244 243 244c97 0 160 -48 202 -104v93h77v-427c0 -80 -24 -141 -66 -183c-46 -46 -115 -69 -197 -69zM314 108
c98 0 190 71 190 177s-92 175 -190 175s-179 -68 -179 -176c0 -104 83 -176 179 -176z" />
    <glyph glyph-name="h" unicode="h" horiz-adv-x="616" 
d="M86 0v730h77v-303c34 56 88 101 177 101c125 0 198 -84 198 -207v-321h-77v302c0 96 -52 156 -143 156c-89 0 -155 -65 -155 -162v-296h-77z" />
    <glyph glyph-name="i" unicode="i" horiz-adv-x="263" 
d="M88 630v85h88v-85h-88zM93 0v517h77v-517h-77z" />
    <glyph glyph-name="j" unicode="j" horiz-adv-x="263" 
d="M88 630v85h88v-85h-88zM44 -163c-18 0 -31 1 -48 5v63c12 -2 27 -3 38 -3c35 0 59 21 59 69v546h77v-547c0 -91 -48 -133 -126 -133z" />
    <glyph glyph-name="k" unicode="k" horiz-adv-x="569" 
d="M86 0v730h77v-504l279 291h96l-217 -222l224 -295h-92l-185 241l-105 -106v-135h-77z" />
    <glyph glyph-name="l" unicode="l" horiz-adv-x="263" 
d="M93 0v730h77v-730h-77z" />
    <glyph glyph-name="m" unicode="m" horiz-adv-x="951" 
d="M86 0v517h77v-87c34 51 80 98 167 98c84 0 138 -45 166 -103c37 57 92 103 182 103c119 0 192 -80 192 -208v-320h-77v302c0 100 -50 156 -134 156c-78 0 -143 -58 -143 -160v-298h-76v304c0 97 -51 154 -133 154s-144 -68 -144 -163v-295h-77z" />
    <glyph glyph-name="n" unicode="n" horiz-adv-x="616" 
d="M86 0v517h77v-90c34 56 88 101 177 101c125 0 198 -84 198 -207v-321h-77v302c0 96 -52 156 -143 156c-89 0 -155 -65 -155 -162v-296h-77z" />
    <glyph glyph-name="o" unicode="o" horiz-adv-x="646" 
d="M322 -12c-155 0 -268 122 -268 270c0 146 114 270 270 270c155 0 269 -122 269 -270c0 -146 -115 -270 -271 -270zM324 57c112 0 190 90 190 201s-83 202 -192 202c-112 0 -189 -91 -189 -202s82 -201 191 -201z" />
    <glyph glyph-name="p" unicode="p" horiz-adv-x="664" 
d="M86 -160v677h77v-104c42 62 103 115 198 115c124 0 247 -98 247 -270c0 -169 -122 -269 -247 -269c-96 0 -158 52 -198 110v-259h-77zM347 58c100 0 182 74 182 201c0 122 -84 200 -182 200c-96 0 -187 -81 -187 -201s91 -200 187 -200z" />
    <glyph glyph-name="q" unicode="q" horiz-adv-x="664" 
d="M501 -160v264c-42 -62 -103 -115 -198 -115c-124 0 -247 98 -247 270c0 169 123 269 247 269c96 0 158 -52 198 -110v99h77v-677h-77zM317 58c96 0 187 81 187 202c0 119 -91 199 -187 199c-100 0 -182 -74 -182 -201c0 -122 84 -200 182 -200z" />
    <glyph glyph-name="r" unicode="r" horiz-adv-x="405" 
d="M86 0v517h77v-135c38 86 113 148 211 144v-83h-6c-113 0 -205 -81 -205 -237v-206h-77z" />
    <glyph glyph-name="s" unicode="s" horiz-adv-x="498" 
d="M257 -10c-74 0 -156 29 -214 76l39 55c56 -42 118 -66 179 -66c62 0 107 32 107 84s-61 72 -129 91c-81 23 -171 51 -171 148c0 89 74 148 176 148c63 0 133 -22 186 -57l-35 -58c-48 31 -103 50 -153 50c-61 0 -100 -32 -100 -77c0 -49 64 -68 133 -89
c80 -24 166 -55 166 -150c0 -98 -81 -155 -184 -155z" />
    <glyph glyph-name="t" unicode="t" horiz-adv-x="404" 
d="M259 -9c-83 0 -146 41 -146 146v312h-72v68h72v156h77v-156h164v-68h-164v-302c0 -63 35 -86 87 -86c26 0 48 5 75 18v-66c-27 -14 -56 -22 -93 -22z" />
    <glyph glyph-name="u" unicode="u" horiz-adv-x="616" 
d="M276 -11c-125 0 -198 84 -198 207v321h77v-302c0 -96 52 -156 143 -156c88 0 155 65 155 162v296h76v-517h-76v90c-35 -56 -88 -101 -177 -101z" />
    <glyph glyph-name="v" unicode="v" horiz-adv-x="587" 
d="M259 -4l-224 521h85l174 -429l175 429h83l-225 -521h-68z" />
    <glyph glyph-name="w" unicode="w" horiz-adv-x="861" 
d="M223 -4l-181 521h82l136 -415l139 417h64l140 -417l136 415h80l-182 -521h-67l-139 408l-140 -408h-68z" />
    <glyph glyph-name="x" unicode="x" horiz-adv-x="574" 
d="M39 0l203 263l-195 254h88l153 -200l153 200h86l-196 -252l204 -265h-89l-160 211l-161 -211h-86z" />
    <glyph glyph-name="y" unicode="y" horiz-adv-x="591" 
d="M166 -163c-43 0 -75 9 -110 26l26 61c25 -13 48 -19 81 -19c46 0 75 24 106 97l-235 515h85l188 -431l166 431h82l-217 -534c-44 -107 -94 -146 -172 -146z" />
    <glyph glyph-name="z" unicode="z" horiz-adv-x="556" 
d="M56 0v49l343 403h-331v65h436v-49l-344 -403h344v-65h-448z" />
    <glyph glyph-name="braceleft" unicode="{" horiz-adv-x="483" 
d="M416 -141c-180 33 -217 98 -217 202c0 15 1 59 1 76c0 78 -28 120 -118 120h-26v60h26c90 0 118 42 118 120c0 17 -1 61 -1 76c0 104 37 169 217 202l12 -51c-140 -36 -156 -71 -156 -161c0 -20 1 -54 1 -75c0 -84 -40 -121 -104 -141c67 -22 104 -57 104 -141
c0 -21 -1 -55 -1 -75c0 -90 16 -125 156 -161z" />
    <glyph glyph-name="bar" unicode="|" horiz-adv-x="303" 
d="M119 -128v926h65v-926h-65z" />
    <glyph glyph-name="braceright" unicode="}" horiz-adv-x="483" 
d="M67 -141l-13 51c141 36 157 71 157 161c0 20 -1 54 -1 75c0 84 40 121 104 141c-67 22 -104 57 -104 141c0 21 1 55 1 75c0 90 -16 125 -157 161l13 51c180 -33 217 -98 217 -202c0 -15 -1 -59 -1 -76c0 -78 28 -120 117 -120h26v-60h-26c-89 0 -117 -42 -117 -120
c0 -17 1 -61 1 -76c0 -104 -37 -169 -217 -202z" />
    <glyph glyph-name="asciitilde" unicode="~" horiz-adv-x="473" 
d="M120 237l-47 13c20 76 47 106 95 106c44 0 99 -41 134 -41c26 0 37 13 52 50l46 -13c-20 -76 -46 -106 -94 -106c-45 0 -100 41 -134 41c-26 0 -37 -13 -52 -50z" />
    <glyph glyph-name="nbspace" horiz-adv-x="300" 
 />
    <glyph glyph-name="uni00A0" unicode="&#xa0;" horiz-adv-x="300" 
 />
    <glyph glyph-name="exclamdown" unicode="&#xa1;" horiz-adv-x="271" 
d="M91 0v57l23 445h43l24 -445v-57h-90zM90 595v105h92v-105h-92z" />
    <glyph glyph-name="cent" unicode="&#xa2;" horiz-adv-x="581" 
d="M212 -6l22 106c-104 37 -176 137 -176 255c0 146 115 270 265 270h13l15 81h65l-18 -90c56 -15 97 -47 132 -84l-50 -52c-28 29 -59 55 -98 67l-77 -392c7 -1 14 -1 21 -1c66 0 118 33 159 77l48 -45c-52 -59 -115 -101 -211 -101c-9 0 -18 0 -27 1l-18 -92h-65zM250 169
l75 387h-4c-104 0 -185 -88 -185 -201c0 -84 46 -155 114 -186z" />
    <glyph glyph-name="sterling" unicode="&#xa3;" horiz-adv-x="644" 
d="M67 0v46l84 21v228h-84v69h84v108c0 74 22 137 63 178c38 38 92 60 158 60c106 0 167 -47 214 -108l-61 -48c-39 49 -81 83 -154 83c-41 0 -73 -13 -98 -37c-29 -28 -43 -73 -43 -128v-108h279v-69h-279v-225h355v-70h-518z" />
    <glyph glyph-name="currency" unicode="&#xa4;" horiz-adv-x="720" 
d="M430 -12c-142 0 -248 101 -283 249h-91v63h81c-2 16 -2 31 -2 50c0 20 1 41 4 58h-83v62h94c38 140 141 242 275 242c118 0 188 -58 241 -137l-60 -43c-50 70 -99 109 -184 109c-89 0 -160 -70 -191 -171h257v-62h-270c-3 -16 -4 -37 -4 -58c0 -18 1 -34 2 -50h272v-63
h-259c30 -107 105 -178 204 -178c79 0 130 45 178 115l57 -40c-55 -83 -125 -146 -238 -146z" />
    <glyph glyph-name="yen" unicode="&#xa5;" horiz-adv-x="686" 
d="M305 0v116h-205v62h205v88h-205v62h181l-254 372h94l223 -342l225 342h90l-255 -372h182v-62h-205v-88h205v-62h-205v-116h-76z" />
    <glyph glyph-name="brokenbar" unicode="&#xa6;" horiz-adv-x="222" 
d="M73 -89v250h75v-250h-75zM73 411v250h75v-250h-75z" />
    <glyph glyph-name="section" unicode="&#xa7;" horiz-adv-x="632" 
d="M328 -10c-93 0 -173 38 -229 95l50 48c46 -45 108 -77 181 -77c70 0 103 29 103 68c0 37 -40 63 -163 92c-152 36 -208 74 -208 144c0 61 54 101 132 114c-45 23 -74 58 -74 103c0 80 72 133 184 133c93 0 173 -38 229 -95l-50 -48c-46 45 -108 77 -181 77
c-70 0 -103 -28 -103 -68c0 -37 38 -62 163 -92c152 -36 208 -73 208 -144c0 -60 -54 -101 -132 -114c45 -22 74 -58 74 -103c0 -80 -72 -133 -184 -133zM387 263c65 0 109 32 109 71c0 33 -32 60 -142 87c-49 12 -83 16 -109 16c-65 0 -109 -32 -109 -71
c0 -33 32 -60 142 -87c48 -12 83 -16 109 -16z" />
    <glyph glyph-name="dieresis" unicode="&#xa8;" 
d="M117 595v95h90v-95h-90zM293 595v95h90v-95h-90z" />
    <glyph glyph-name="copyright" unicode="&#xa9;" horiz-adv-x="830" 
d="M414 -12c-203 0 -361 163 -361 362c0 197 160 362 363 362s361 -163 361 -362c0 -197 -160 -362 -363 -362zM414 19c188 0 330 150 330 333c0 181 -141 329 -328 329c-188 0 -330 -150 -330 -333c0 -181 141 -329 328 -329zM419 163c-106 0 -186 86 -186 193
c0 104 80 191 188 191c67 0 107 -25 144 -60l-37 -40c-29 28 -64 50 -108 50c-75 0 -131 -64 -131 -142c0 -77 58 -141 132 -141c47 0 77 19 110 50l36 -35c-39 -40 -81 -66 -148 -66z" />
    <glyph glyph-name="ordfeminine" unicode="&#xaa;" horiz-adv-x="390" 
d="M58 289v47h260v-47h-260zM168 408c-53 0 -107 30 -107 92c0 60 51 93 123 93c34 0 58 -5 80 -11v5c0 46 -29 71 -78 71c-31 0 -57 -9 -86 -22l-15 42c34 15 64 25 106 25c75 0 122 -38 122 -116v-173h-49v38c-22 -27 -54 -44 -96 -44zM177 450c47 0 87 28 87 70v24
c-20 6 -44 11 -76 11c-33 0 -75 -14 -75 -55c0 -32 29 -50 64 -50z" />
    <glyph glyph-name="guillemotleft" unicode="&#xab;" horiz-adv-x="550" 
d="M210 41l-162 214v8l162 213l59 -33l-135 -183l135 -185zM433 41l-162 214v8l162 213l58 -33l-135 -183l135 -185z" />
    <glyph glyph-name="logicalnot" unicode="&#xac;" horiz-adv-x="640" 
d="M475 253v178h-386v75h461v-253h-75z" />
    <glyph glyph-name="uni00AD" unicode="&#xad;" horiz-adv-x="408" 
d="M65 260v81h278v-81h-278z" />
    <glyph glyph-name="registered" unicode="&#xae;" horiz-adv-x="830" 
d="M414 -12c-203 0 -361 163 -361 362c0 197 160 362 363 362s361 -163 361 -362c0 -197 -160 -362 -363 -362zM414 19c188 0 330 150 330 333c0 181 -141 329 -328 329c-188 0 -330 -150 -330 -333c0 -181 141 -329 328 -329zM273 175v371h166c47 0 86 -15 110 -39
c18 -17 30 -42 30 -74c0 -60 -40 -96 -96 -109l115 -149h-68l-109 140h-93v-140h-55zM328 364h106c52 0 88 24 88 68c0 39 -32 64 -85 64h-109v-132z" />
    <glyph glyph-name="macron" unicode="&#xaf;" 
d="M92 600v67h316v-67h-316z" />
    <glyph glyph-name="degree" unicode="&#xb0;" horiz-adv-x="458" 
d="M229 400c-82 0 -157 71 -157 154c0 82 75 152 157 152s157 -70 157 -154c0 -81 -75 -152 -157 -152zM229 452c57 0 99 48 99 102c0 52 -42 100 -99 100s-99 -48 -99 -102c0 -52 42 -100 99 -100z" />
    <glyph glyph-name="plusminus" unicode="&#xb1;" horiz-adv-x="640" 
d="M72 14v70h496v-70h-496zM281 134v168h-211v72h211v168h77v-168h212v-72h-212v-168h-77z" />
    <glyph glyph-name="twosuperior" unicode="&#xb2;" 
d="M0 0v700h500v-700h-500zM81 49h339l-170 255zM49 96l171 254l-171 254v-508zM450 96v508l-171 -254zM250 395l170 255h-339z" />
    <glyph glyph-name="threesuperior" unicode="&#xb3;" 
d="M0 0v700h500v-700h-500zM81 49h339l-170 255zM49 96l171 254l-171 254v-508zM450 96v508l-171 -254zM250 395l170 255h-339z" />
    <glyph glyph-name="acute" unicode="&#xb4;" 
d="M181 595l95 145l80 -37l-113 -108h-62z" />
    <glyph glyph-name="mu" unicode="&#xb5;" horiz-adv-x="629" 
d="M86 -160v677h77v-302c0 -90 59 -158 145 -158c89 0 158 68 158 164v296h77v-517h-77v90c-33 -55 -87 -100 -174 -100c-65 0 -102 30 -129 68v-218h-77z" />
    <glyph glyph-name="paragraph" unicode="&#xb6;" horiz-adv-x="510" 
d="M338 0v264h-11c-158 0 -279 77 -279 219c0 136 109 217 264 217h106v-700h-80z" />
    <glyph glyph-name="periodcentered" unicode="&#xb7;" horiz-adv-x="245" 
d="M77 248v105h92v-105h-92z" />
    <glyph glyph-name="cedilla" unicode="&#xb8;" 
d="M225 -155l-75 34l90 131h61z" />
    <glyph glyph-name="onesuperior" unicode="&#xb9;" 
d="M0 0v700h500v-700h-500zM81 49h339l-170 255zM49 96l171 254l-171 254v-508zM450 96v508l-171 -254zM250 395l170 255h-339z" />
    <glyph glyph-name="ordmasculine" unicode="&#xba;" horiz-adv-x="390" 
d="M51 289v47h288v-47h-288zM194 407c-84 0 -146 67 -146 149c0 81 63 149 148 149c84 0 146 -67 146 -149c0 -81 -63 -149 -148 -149zM196 455c55 0 92 45 92 101s-40 101 -94 101c-55 0 -92 -45 -92 -101c0 -55 40 -101 94 -101z" />
    <glyph glyph-name="guillemotright" unicode="&#xbb;" horiz-adv-x="550" 
d="M117 41l-58 33l135 184l-135 184l58 34l162 -213v-8zM340 41l-59 33l135 184l-135 184l59 34l162 -213v-8z" />
    <glyph glyph-name="onequarter" unicode="&#xbc;" 
d="M0 0v700h500v-700h-500zM81 49h339l-170 255zM49 96l171 254l-171 254v-508zM450 96v508l-171 -254zM250 395l170 255h-339z" />
    <glyph glyph-name="onehalf" unicode="&#xbd;" 
d="M0 0v700h500v-700h-500zM81 49h339l-170 255zM49 96l171 254l-171 254v-508zM450 96v508l-171 -254zM250 395l170 255h-339z" />
    <glyph glyph-name="threequarters" unicode="&#xbe;" 
d="M0 0v700h500v-700h-500zM81 49h339l-170 255zM49 96l171 254l-171 254v-508zM450 96v508l-171 -254zM250 395l170 255h-339z" />
    <glyph glyph-name="questiondown" unicode="&#xbf;" horiz-adv-x="537" 
d="M272 -9c-136 0 -224 84 -224 200c0 125 94 187 208 203l9 108h51l16 -162l-5 -5c-130 -3 -199 -57 -199 -143c0 -72 56 -130 146 -130c73 0 131 35 181 94l51 -49c-57 -69 -127 -116 -234 -116zM246 595v105h92v-105h-92z" />
    <glyph glyph-name="Agrave" unicode="&#xc0;" horiz-adv-x="790" 
d="M39 0l319 705h74l319 -705h-85l-82 185h-381l-83 -185h-81zM234 256h319l-159 357zM363 762l-113 108l80 37l95 -145h-62z" />
    <glyph glyph-name="Aacute" unicode="&#xc1;" horiz-adv-x="790" 
d="M39 0l319 705h74l319 -705h-85l-82 185h-381l-83 -185h-81zM234 256h319l-159 357zM365 762l95 145l80 -37l-113 -108h-62z" />
    <glyph glyph-name="Acircumflex" unicode="&#xc2;" horiz-adv-x="790" 
d="M39 0l319 705h74l319 -705h-85l-82 185h-381l-83 -185h-81zM234 256h319l-159 357zM255 759l106 131h68l106 -131h-66l-75 67l-75 -67h-64z" />
    <glyph glyph-name="Atilde" unicode="&#xc3;" horiz-adv-x="790" 
d="M39 0l319 705h74l319 -705h-85l-82 185h-381l-83 -185h-81zM234 256h319l-159 357zM278 753l-47 13c20 75 47 105 95 105c45 0 100 -40 134 -40c26 0 37 13 52 49l47 -13c-20 -75 -47 -105 -95 -105c-45 0 -100 40 -134 40c-26 0 -37 -13 -52 -49z" />
    <glyph glyph-name="Adieresis" unicode="&#xc4;" horiz-adv-x="790" 
d="M39 0l319 705h74l319 -705h-85l-82 185h-381l-83 -185h-81zM234 256h319l-159 357zM262 762v95h90v-95h-90zM438 762v95h90v-95h-90z" />
    <glyph glyph-name="Aring" unicode="&#xc5;" horiz-adv-x="790" 
d="M39 0l307 680c-32 17 -55 49 -55 88c0 54 49 99 104 99s104 -45 104 -101c0 -37 -23 -69 -55 -86l307 -680h-85l-82 185h-381l-83 -185h-81zM234 256h319l-159 357zM395 705c33 0 62 28 62 63c0 33 -28 61 -62 61s-62 -28 -62 -63c0 -33 29 -61 62 -61z" />
    <glyph glyph-name="AE" unicode="&#xc6;" horiz-adv-x="1045" 
d="M17 0l411 700h552v-72h-409v-239h364v-72h-364v-245h414v-72h-494v185h-282l-109 -185h-83zM249 256h242v374h-24z" />
    <glyph glyph-name="Ccedilla" unicode="&#xc7;" horiz-adv-x="738" 
d="M369 -155l-75 34l77 112c-177 23 -303 172 -303 359c0 198 148 362 354 362c127 0 203 -45 273 -111l-54 -58c-59 56 -125 96 -220 96c-155 0 -271 -126 -271 -289c0 -162 117 -289 271 -289c96 0 159 37 226 101l52 -51c-70 -71 -146 -118 -264 -123z" />
    <glyph glyph-name="Egrave" unicode="&#xc8;" horiz-adv-x="670" 
d="M99 0v700h506v-72h-427v-239h382v-72h-382v-245h432v-72h-511zM340 762l-113 108l80 37l95 -145h-62z" />
    <glyph glyph-name="Eacute" unicode="&#xc9;" horiz-adv-x="670" 
d="M99 0v700h506v-72h-427v-239h382v-72h-382v-245h432v-72h-511zM297 762l95 145l80 -37l-113 -108h-62z" />
    <glyph glyph-name="Ecircumflex" unicode="&#xca;" horiz-adv-x="670" 
d="M99 0v700h506v-72h-427v-239h382v-72h-382v-245h432v-72h-511zM208 762l106 131h68l106 -131h-66l-75 67l-75 -67h-64z" />
    <glyph glyph-name="Edieresis" unicode="&#xcb;" horiz-adv-x="670" 
d="M99 0v700h506v-72h-427v-239h382v-72h-382v-245h432v-72h-511zM215 762v95h90v-95h-90zM391 762v95h90v-95h-90z" />
    <glyph glyph-name="Igrave" unicode="&#xcc;" horiz-adv-x="291" 
d="M106 0v700h79v-700h-79zM115 762l-113 108l80 37l95 -145h-62z" />
    <glyph glyph-name="Iacute" unicode="&#xcd;" horiz-adv-x="291" 
d="M106 0v700h79v-700h-79zM114 762l95 145l80 -37l-113 -108h-62z" />
    <glyph glyph-name="Icircumflex" unicode="&#xce;" horiz-adv-x="291" 
d="M106 0v700h79v-700h-79zM6 762l106 131h68l106 -131h-66l-75 67l-75 -67h-64z" />
    <glyph glyph-name="Idieresis" unicode="&#xcf;" horiz-adv-x="291" 
d="M106 0v700h79v-700h-79zM13 762v95h90v-95h-90zM189 762v95h90v-95h-90z" />
    <glyph glyph-name="Eth" unicode="&#xd0;" horiz-adv-x="812" 
d="M129 0v316h-75v72h75v312h243c220 0 372 -151 372 -350c0 -197 -152 -350 -372 -350h-243zM208 73h164c177 0 290 120 290 277c0 155 -113 277 -290 277h-164v-239h210v-72h-210v-243z" />
    <glyph glyph-name="Ntilde" unicode="&#xd1;" horiz-adv-x="790" 
d="M99 0v700h74l441 -561v561h77v-700h-63l-452 574v-574h-77zM278 753l-47 13c20 75 47 105 95 105c45 0 100 -40 134 -40c26 0 37 13 52 49l47 -13c-20 -75 -47 -105 -95 -105c-45 0 -100 40 -134 40c-26 0 -37 -13 -52 -49z" />
    <glyph glyph-name="Ograve" unicode="&#xd2;" horiz-adv-x="850" 
d="M424 -12c-213 0 -356 167 -356 362c0 193 145 362 358 362s356 -167 356 -362c0 -193 -145 -362 -358 -362zM426 61c160 0 274 128 274 289c0 159 -116 289 -276 289s-274 -128 -274 -289c0 -159 116 -289 276 -289zM389 762l-113 108l80 37l95 -145h-62z" />
    <glyph glyph-name="Oacute" unicode="&#xd3;" horiz-adv-x="850" 
d="M424 -12c-213 0 -356 167 -356 362c0 193 145 362 358 362s356 -167 356 -362c0 -193 -145 -362 -358 -362zM426 61c160 0 274 128 274 289c0 159 -116 289 -276 289s-274 -128 -274 -289c0 -159 116 -289 276 -289zM399 762l95 145l80 -37l-113 -108h-62z" />
    <glyph glyph-name="Ocircumflex" unicode="&#xd4;" horiz-adv-x="850" 
d="M424 -12c-213 0 -356 167 -356 362c0 193 145 362 358 362s356 -167 356 -362c0 -193 -145 -362 -358 -362zM426 61c160 0 274 128 274 289c0 159 -116 289 -276 289s-274 -128 -274 -289c0 -159 116 -289 276 -289zM285 762l106 131h68l106 -131h-66l-75 67l-75 -67h-64
z" />
    <glyph glyph-name="Otilde" unicode="&#xd5;" horiz-adv-x="850" 
d="M424 -12c-213 0 -356 167 -356 362c0 193 145 362 358 362s356 -167 356 -362c0 -193 -145 -362 -358 -362zM426 61c160 0 274 128 274 289c0 159 -116 289 -276 289s-274 -128 -274 -289c0 -159 116 -289 276 -289zM308 753l-47 13c20 75 47 105 95 105
c45 0 100 -40 134 -40c26 0 37 13 52 49l47 -13c-20 -75 -47 -105 -95 -105c-45 0 -100 40 -134 40c-26 0 -37 -13 -52 -49z" />
    <glyph glyph-name="Odieresis" unicode="&#xd6;" horiz-adv-x="850" 
d="M424 -12c-213 0 -356 167 -356 362c0 193 145 362 358 362s356 -167 356 -362c0 -193 -145 -362 -358 -362zM426 61c160 0 274 128 274 289c0 159 -116 289 -276 289s-274 -128 -274 -289c0 -159 116 -289 276 -289zM292 762v95h90v-95h-90zM468 762v95h90v-95h-90z" />
    <glyph glyph-name="multiply" unicode="&#xd7;" horiz-adv-x="640" 
d="M130 94l-51 52l189 189l-189 189l51 52l189 -191l189 191l51 -52l-189 -189l189 -189l-51 -52l-189 190z" />
    <glyph glyph-name="Oslash" unicode="&#xd8;" horiz-adv-x="850" 
d="M424 -12c-86 0 -161 27 -219 73l-62 -66h-83l99 108c-58 65 -91 152 -91 247c0 193 145 362 358 362c86 0 161 -27 219 -74l62 67h83l-99 -108c58 -65 91 -152 91 -247c0 -193 -145 -362 -358 -362zM426 60c160 0 274 129 274 290c0 71 -23 136 -63 187l-381 -416
c45 -38 104 -61 170 -61zM213 163l381 416c-45 38 -104 61 -170 61c-160 0 -274 -129 -274 -290c0 -71 23 -136 63 -187z" />
    <glyph glyph-name="Ugrave" unicode="&#xd9;" horiz-adv-x="759" 
d="M379 -11c-173 0 -291 106 -291 304v407h79v-402c0 -151 80 -236 214 -236c129 0 211 78 211 231v407h79v-401c0 -204 -117 -310 -292 -310zM354 757l-113 108l80 37l95 -145h-62z" />
    <glyph glyph-name="Uacute" unicode="&#xda;" horiz-adv-x="759" 
d="M379 -11c-173 0 -291 106 -291 304v407h79v-402c0 -151 80 -236 214 -236c129 0 211 78 211 231v407h79v-401c0 -204 -117 -310 -292 -310zM343 757l95 145l80 -37l-113 -108h-62z" />
    <glyph glyph-name="Ucircumflex" unicode="&#xdb;" horiz-adv-x="759" 
d="M379 -11c-173 0 -291 106 -291 304v407h79v-402c0 -151 80 -236 214 -236c129 0 211 78 211 231v407h79v-401c0 -204 -117 -310 -292 -310zM239 759l106 131h68l106 -131h-66l-75 67l-75 -67h-64z" />
    <glyph glyph-name="Udieresis" unicode="&#xdc;" horiz-adv-x="759" 
d="M379 -11c-173 0 -291 106 -291 304v407h79v-402c0 -151 80 -236 214 -236c129 0 211 78 211 231v407h79v-401c0 -204 -117 -310 -292 -310zM246 759v95h90v-95h-90zM422 759v95h90v-95h-90z" />
    <glyph glyph-name="Yacute" unicode="&#xdd;" horiz-adv-x="716" 
d="M318 0v277l-291 423h96l236 -350l238 350h92l-291 -422v-278h-80zM329 757l95 145l80 -37l-113 -108h-62z" />
    <glyph glyph-name="Thorn" unicode="&#xde;" horiz-adv-x="673" 
d="M99 0v700h79v-120h183c158 0 262 -85 262 -224c0 -151 -126 -230 -275 -230h-170v-126h-79zM178 198h173c116 0 192 63 192 157c0 100 -75 152 -188 152h-177v-309z" />
    <glyph glyph-name="germandbls" unicode="&#xdf;" horiz-adv-x="620" 
d="M292 -2v62c118 3 191 48 191 134c0 80 -75 125 -191 137v57c84 31 148 80 148 164c0 69 -53 117 -131 117c-85 0 -146 -65 -146 -167v-502h-77v501c0 141 88 236 227 236c126 0 206 -79 206 -182c0 -94 -69 -153 -139 -183c94 -21 182 -74 182 -180
c0 -122 -101 -194 -263 -194h-7z" />
    <glyph glyph-name="agrave" unicode="&#xe0;" horiz-adv-x="579" 
d="M240 -11c-97 0 -193 55 -193 163c0 111 90 169 221 169c66 0 112 -9 158 -22v16c0 92 -56 140 -153 140c-61 0 -109 -15 -157 -37l-23 63c57 26 112 44 188 44c73 0 130 -20 167 -57c36 -36 54 -86 54 -152v-316h-76v77c-36 -46 -95 -88 -186 -88zM255 51
c95 0 172 57 172 139v48c-38 11 -88 22 -151 22c-96 0 -151 -42 -151 -106c0 -65 60 -103 130 -103zM261 595l-113 108l80 37l95 -145h-62z" />
    <glyph glyph-name="aacute" unicode="&#xe1;" horiz-adv-x="579" 
d="M240 -11c-97 0 -193 55 -193 163c0 111 90 169 221 169c66 0 112 -9 158 -22v16c0 92 -56 140 -153 140c-61 0 -109 -15 -157 -37l-23 63c57 26 112 44 188 44c73 0 130 -20 167 -57c36 -36 54 -86 54 -152v-316h-76v77c-36 -46 -95 -88 -186 -88zM255 51
c95 0 172 57 172 139v48c-38 11 -88 22 -151 22c-96 0 -151 -42 -151 -106c0 -65 60 -103 130 -103zM248 595l95 145l80 -37l-113 -108h-62z" />
    <glyph glyph-name="acircumflex" unicode="&#xe2;" horiz-adv-x="579" 
d="M240 -11c-97 0 -193 55 -193 163c0 111 90 169 221 169c66 0 112 -9 158 -22v16c0 92 -56 140 -153 140c-61 0 -109 -15 -157 -37l-23 63c57 26 112 44 188 44c73 0 130 -20 167 -57c36 -36 54 -86 54 -152v-316h-76v77c-36 -46 -95 -88 -186 -88zM255 51
c95 0 172 57 172 139v48c-38 11 -88 22 -151 22c-96 0 -151 -42 -151 -106c0 -65 60 -103 130 -103zM151 595l106 131h68l106 -131h-66l-75 67l-75 -67h-64z" />
    <glyph glyph-name="atilde" unicode="&#xe3;" horiz-adv-x="579" 
d="M240 -11c-97 0 -193 55 -193 163c0 111 90 169 221 169c66 0 112 -9 158 -22v16c0 92 -56 140 -153 140c-61 0 -109 -15 -157 -37l-23 63c57 26 112 44 188 44c73 0 130 -20 167 -57c36 -36 54 -86 54 -152v-316h-76v77c-36 -46 -95 -88 -186 -88zM255 51
c95 0 172 57 172 139v48c-38 11 -88 22 -151 22c-96 0 -151 -42 -151 -106c0 -65 60 -103 130 -103zM175 586l-47 13c20 75 47 105 95 105c45 0 100 -40 134 -40c26 0 37 13 52 49l47 -13c-20 -75 -47 -105 -95 -105c-45 0 -100 40 -134 40c-26 0 -37 -13 -52 -49z" />
    <glyph glyph-name="adieresis" unicode="&#xe4;" horiz-adv-x="579" 
d="M240 -11c-97 0 -193 55 -193 163c0 111 90 169 221 169c66 0 112 -9 158 -22v16c0 92 -56 140 -153 140c-61 0 -109 -15 -157 -37l-23 63c57 26 112 44 188 44c73 0 130 -20 167 -57c36 -36 54 -86 54 -152v-316h-76v77c-36 -46 -95 -88 -186 -88zM255 51
c95 0 172 57 172 139v48c-38 11 -88 22 -151 22c-96 0 -151 -42 -151 -106c0 -65 60 -103 130 -103zM158 595v95h90v-95h-90zM334 595v95h90v-95h-90z" />
    <glyph glyph-name="aring" unicode="&#xe5;" horiz-adv-x="579" 
d="M240 -11c-97 0 -193 55 -193 163c0 111 90 169 221 169c66 0 112 -9 158 -22v16c0 92 -56 140 -153 140c-61 0 -109 -15 -157 -37l-23 63c57 26 112 44 188 44c73 0 130 -20 167 -57c36 -36 54 -86 54 -152v-316h-76v77c-36 -46 -95 -88 -186 -88zM255 51
c95 0 172 57 172 139v48c-38 11 -88 22 -151 22c-96 0 -151 -42 -151 -106c0 -65 60 -103 130 -103zM291 593c-55 0 -104 45 -104 101c0 54 49 99 104 99s104 -45 104 -101c0 -54 -49 -99 -104 -99zM291 631c33 0 62 28 62 63c0 33 -28 61 -62 61s-62 -28 -62 -63
c0 -33 29 -61 62 -61z" />
    <glyph glyph-name="ae" unicode="&#xe6;" horiz-adv-x="953" 
d="M236 -11c-92 0 -189 55 -189 163c0 111 91 169 217 169c61 0 102 -9 153 -22v16c0 93 -56 140 -148 140c-56 0 -105 -15 -153 -37l-23 63c57 26 113 44 184 44c93 0 163 -38 189 -112c41 69 113 115 198 115c152 0 240 -122 240 -274c0 -7 0 -15 -1 -27h-410
c11 -109 91 -172 182 -172c71 0 121 29 163 73l48 -43c-52 -58 -115 -97 -213 -97c-83 0 -159 39 -205 104c-55 -57 -146 -103 -232 -103zM251 51c90 0 138 38 186 92c-12 30 -19 62 -21 97c-38 10 -86 20 -144 20c-91 0 -147 -42 -147 -106c0 -65 61 -103 126 -103z
M493 289h333c-9 94 -63 174 -165 174c-89 0 -157 -74 -168 -174z" />
    <glyph glyph-name="ccedilla" unicode="&#xe7;" horiz-adv-x="571" 
d="M268 -155l-75 34l78 114c-126 22 -217 133 -217 265c0 146 114 270 265 270c98 0 159 -41 207 -92l-51 -54c-41 43 -87 78 -157 78c-105 0 -185 -89 -185 -202c0 -112 82 -201 190 -201c66 0 117 33 158 77l49 -46c-50 -55 -107 -95 -196 -100z" />
    <glyph glyph-name="egrave" unicode="&#xe8;" horiz-adv-x="592" 
d="M132 227c11 -109 91 -172 182 -172c71 0 121 29 163 73l48 -43c-52 -58 -115 -97 -213 -97c-142 0 -258 109 -258 270c0 150 105 270 248 270c153 0 241 -122 241 -274c0 -7 0 -15 -1 -27h-410zM132 289h333c-9 94 -63 174 -165 174c-89 0 -157 -74 -168 -174zM276 595
l-113 108l80 37l95 -145h-62z" />
    <glyph glyph-name="eacute" unicode="&#xe9;" horiz-adv-x="592" 
d="M132 227c11 -109 91 -172 182 -172c71 0 121 29 163 73l48 -43c-52 -58 -115 -97 -213 -97c-142 0 -258 109 -258 270c0 150 105 270 248 270c153 0 241 -122 241 -274c0 -7 0 -15 -1 -27h-410zM132 289h333c-9 94 -63 174 -165 174c-89 0 -157 -74 -168 -174zM254 595
l95 145l80 -37l-113 -108h-62z" />
    <glyph glyph-name="ecircumflex" unicode="&#xea;" horiz-adv-x="592" 
d="M132 227c11 -109 91 -172 182 -172c71 0 121 29 163 73l48 -43c-52 -58 -115 -97 -213 -97c-142 0 -258 109 -258 270c0 150 105 270 248 270c153 0 241 -122 241 -274c0 -7 0 -15 -1 -27h-410zM132 289h333c-9 94 -63 174 -165 174c-89 0 -157 -74 -168 -174zM159 595
l106 131h68l106 -131h-66l-75 67l-75 -67h-64z" />
    <glyph glyph-name="edieresis" unicode="&#xeb;" horiz-adv-x="592" 
d="M132 227c11 -109 91 -172 182 -172c71 0 121 29 163 73l48 -43c-52 -58 -115 -97 -213 -97c-142 0 -258 109 -258 270c0 150 105 270 248 270c153 0 241 -122 241 -274c0 -7 0 -15 -1 -27h-410zM132 289h333c-9 94 -63 174 -165 174c-89 0 -157 -74 -168 -174zM166 595
v95h90v-95h-90zM342 595v95h90v-95h-90z" />
    <glyph glyph-name="igrave" unicode="&#xec;" horiz-adv-x="263" 
d="M93 0v517h77v-517h-77zM102 595l-113 108l80 37l95 -145h-62z" />
    <glyph glyph-name="iacute" unicode="&#xed;" horiz-adv-x="263" 
d="M93 0v517h77v-517h-77zM100 595l95 145l80 -37l-113 -108h-62z" />
    <glyph glyph-name="icircumflex" unicode="&#xee;" horiz-adv-x="263" 
d="M93 0v517h77v-517h-77zM-9 595l106 131h68l106 -131h-66l-75 67l-75 -67h-64z" />
    <glyph glyph-name="idieresis" unicode="&#xef;" horiz-adv-x="263" 
d="M93 0v517h77v-517h-77zM-2 595v95h90v-95h-90zM174 595v95h90v-95h-90z" />
    <glyph glyph-name="eth" unicode="&#xf0;" horiz-adv-x="633" 
d="M312 -12c-149 0 -258 117 -258 259c0 143 109 239 237 239c71 0 118 -24 162 -55l-131 184l-128 -63l-36 47l131 61l-50 70h92l26 -39l99 48l35 -47l-102 -47l101 -149c54 -78 88 -150 88 -245c0 -140 -103 -263 -266 -263zM317 56c109 0 182 87 182 189
c0 98 -81 180 -190 180s-177 -79 -177 -183c0 -96 77 -186 185 -186z" />
    <glyph glyph-name="ntilde" unicode="&#xf1;" horiz-adv-x="616" 
d="M86 0v517h77v-90c34 56 88 101 177 101c125 0 198 -84 198 -207v-321h-77v302c0 96 -52 156 -143 156c-89 0 -155 -65 -155 -162v-296h-77zM195 586l-47 13c20 75 47 105 95 105c45 0 100 -40 134 -40c26 0 37 13 52 49l47 -13c-20 -75 -47 -105 -95 -105
c-45 0 -100 40 -134 40c-26 0 -37 -13 -52 -49z" />
    <glyph glyph-name="ograve" unicode="&#xf2;" horiz-adv-x="646" 
d="M322 -12c-155 0 -268 122 -268 270c0 146 114 270 270 270c155 0 269 -122 269 -270c0 -146 -115 -270 -271 -270zM324 57c112 0 190 90 190 201s-83 202 -192 202c-112 0 -189 -91 -189 -202s82 -201 191 -201zM292 595l-113 108l80 37l95 -145h-62z" />
    <glyph glyph-name="oacute" unicode="&#xf3;" horiz-adv-x="646" 
d="M322 -12c-155 0 -268 122 -268 270c0 146 114 270 270 270c155 0 269 -122 269 -270c0 -146 -115 -270 -271 -270zM324 57c112 0 190 90 190 201s-83 202 -192 202c-112 0 -189 -91 -189 -202s82 -201 191 -201zM293 595l95 145l80 -37l-113 -108h-62z" />
    <glyph glyph-name="ocircumflex" unicode="&#xf4;" horiz-adv-x="646" 
d="M322 -12c-155 0 -268 122 -268 270c0 146 114 270 270 270c155 0 269 -122 269 -270c0 -146 -115 -270 -271 -270zM324 57c112 0 190 90 190 201s-83 202 -192 202c-112 0 -189 -91 -189 -202s82 -201 191 -201zM183 595l106 131h68l106 -131h-66l-75 67l-75 -67h-64z
" />
    <glyph glyph-name="otilde" unicode="&#xf5;" horiz-adv-x="646" 
d="M322 -12c-155 0 -268 122 -268 270c0 146 114 270 270 270c155 0 269 -122 269 -270c0 -146 -115 -270 -271 -270zM324 57c112 0 190 90 190 201s-83 202 -192 202c-112 0 -189 -91 -189 -202s82 -201 191 -201zM206 586l-47 13c20 75 47 105 95 105
c45 0 100 -40 134 -40c26 0 37 13 52 49l47 -13c-20 -75 -47 -105 -95 -105c-45 0 -100 40 -134 40c-26 0 -37 -13 -52 -49z" />
    <glyph glyph-name="odieresis" unicode="&#xf6;" horiz-adv-x="646" 
d="M322 -12c-155 0 -268 122 -268 270c0 146 114 270 270 270c155 0 269 -122 269 -270c0 -146 -115 -270 -271 -270zM324 57c112 0 190 90 190 201s-83 202 -192 202c-112 0 -189 -91 -189 -202s82 -201 191 -201zM190 595v95h90v-95h-90zM366 595v95h90v-95h-90z" />
    <glyph glyph-name="divide" unicode="&#xf7;" horiz-adv-x="640" 
d="M275 110v103h89v-103h-89zM89 317v74h462v-74h-462zM275 494v103h89v-103h-89z" />
    <glyph glyph-name="oslash" unicode="&#xf8;" horiz-adv-x="646" 
d="M322 -12c-62 0 -117 20 -161 53l-45 -46h-77l79 85c-40 47 -64 110 -64 178c0 146 114 270 270 270c62 0 118 -20 161 -54l45 49h78s-69 -73 -80 -86c41 -47 65 -109 65 -179c0 -146 -115 -270 -271 -270zM324 56c113 0 191 91 191 202c0 46 -15 89 -39 122l-267 -283
c31 -26 71 -41 115 -41zM170 136l268 283c-32 26 -71 42 -116 42c-112 0 -190 -91 -190 -203c0 -46 14 -87 38 -122z" />
    <glyph glyph-name="ugrave" unicode="&#xf9;" horiz-adv-x="616" 
d="M276 -11c-125 0 -198 84 -198 207v321h77v-302c0 -96 52 -156 143 -156c88 0 155 65 155 162v296h76v-517h-76v90c-35 -56 -88 -101 -177 -101zM284 591l-113 108l80 37l95 -145h-62z" />
    <glyph glyph-name="uacute" unicode="&#xfa;" horiz-adv-x="616" 
d="M276 -11c-125 0 -198 84 -198 207v321h77v-302c0 -96 52 -156 143 -156c88 0 155 65 155 162v296h76v-517h-76v90c-35 -56 -88 -101 -177 -101zM266 591l95 145l80 -37l-113 -108h-62z" />
    <glyph glyph-name="ucircumflex" unicode="&#xfb;" horiz-adv-x="616" 
d="M276 -11c-125 0 -198 84 -198 207v321h77v-302c0 -96 52 -156 143 -156c88 0 155 65 155 162v296h76v-517h-76v90c-35 -56 -88 -101 -177 -101zM169 595l106 131h68l106 -131h-66l-75 67l-75 -67h-64z" />
    <glyph glyph-name="udieresis" unicode="&#xfc;" horiz-adv-x="616" 
d="M276 -11c-125 0 -198 84 -198 207v321h77v-302c0 -96 52 -156 143 -156c88 0 155 65 155 162v296h76v-517h-76v90c-35 -56 -88 -101 -177 -101zM176 595v95h90v-95h-90zM352 595v95h90v-95h-90z" />
    <glyph glyph-name="yacute" unicode="&#xfd;" horiz-adv-x="591" 
d="M166 -163c-43 0 -75 9 -110 26l26 61c25 -13 48 -19 81 -19c46 0 75 24 106 97l-235 515h85l188 -431l166 431h82l-217 -534c-44 -107 -94 -146 -172 -146zM267 591l95 145l80 -37l-113 -108h-62z" />
    <glyph glyph-name="thorn" unicode="&#xfe;" horiz-adv-x="664" 
d="M86 -160v890h77v-317c42 62 103 115 198 115c124 0 247 -98 247 -270c0 -169 -122 -269 -247 -269c-96 0 -158 52 -198 110v-259h-77zM347 58c100 0 182 74 182 201c0 122 -84 200 -182 200c-96 0 -187 -81 -187 -201s91 -200 187 -200z" />
    <glyph glyph-name="ydieresis" unicode="&#xff;" horiz-adv-x="591" 
d="M166 -163c-43 0 -75 9 -110 26l26 61c25 -13 48 -19 81 -19c46 0 75 24 106 97l-235 515h85l188 -431l166 431h82l-217 -534c-44 -107 -94 -146 -172 -146zM163 595v95h90v-95h-90zM339 595v95h90v-95h-90z" />
    <glyph glyph-name="dotlessi" unicode="&#x131;" horiz-adv-x="263" 
d="M93 0v517h77v-517h-77z" />
    <glyph glyph-name="Lslash" unicode="&#x141;" horiz-adv-x="649" 
d="M129 0v301l-75 -22v73l75 23v325h78v-301l216 66v-74l-216 -65v-253h395v-73h-473z" />
    <glyph glyph-name="lslash" unicode="&#x142;" horiz-adv-x="323" 
d="M124 0v321l-76 -24v75l76 23v335h76v-312l76 24v-75l-76 -24v-343h-76z" />
    <glyph glyph-name="OE" unicode="&#x152;" horiz-adv-x="1131" 
d="M440 0c-220 0 -372 151 -372 350c0 197 152 350 372 350h626v-72h-409v-239h364v-72h-364v-245h414v-72h-631zM440 72h138v556h-138c-177 0 -290 -121 -290 -278c0 -155 113 -278 290 -278z" />
    <glyph glyph-name="oe" unicode="&#x153;" horiz-adv-x="1049" 
d="M319 -12c-150 0 -265 122 -265 270c0 146 116 270 268 270c101 0 184 -56 226 -137c39 82 117 137 212 137c152 0 240 -122 240 -274c0 -7 0 -15 -1 -27h-410c11 -109 91 -172 182 -172c71 0 121 29 163 73l48 -43c-51 -58 -115 -97 -212 -97c-96 0 -181 53 -223 139
c-42 -81 -126 -139 -228 -139zM323 57c111 0 188 90 188 201s-82 202 -190 202c-111 0 -188 -91 -188 -202s82 -201 190 -201zM589 289h333c-9 94 -63 174 -165 174c-89 0 -157 -74 -168 -174z" />
    <glyph glyph-name="Scaron" unicode="&#x160;" horiz-adv-x="640" 
d="M339 -10c-111 0 -202 37 -286 112l49 58c73 -66 143 -99 240 -99c94 0 156 50 156 121c0 65 -35 102 -182 133c-161 35 -235 87 -235 204c0 110 97 191 230 191c102 0 175 -29 246 -86l-46 -61c-65 53 -130 76 -202 76c-91 0 -149 -50 -149 -115c0 -66 36 -103 190 -136
c156 -34 228 -91 228 -200c0 -120 -100 -198 -239 -198zM290 762l-106 131h66l75 -67l75 67h64l-106 -131h-68z" />
    <glyph glyph-name="scaron" unicode="&#x161;" horiz-adv-x="498" 
d="M257 -10c-74 0 -156 29 -214 76l39 55c56 -42 118 -66 179 -66c62 0 107 32 107 84s-61 72 -129 91c-81 23 -171 51 -171 148c0 89 74 148 176 148c63 0 133 -22 186 -57l-35 -58c-48 31 -103 50 -153 50c-61 0 -100 -32 -100 -77c0 -49 64 -68 133 -89
c80 -24 166 -55 166 -150c0 -98 -81 -155 -184 -155zM218 595l-106 131h66l75 -67l75 67h64l-106 -131h-68z" />
    <glyph glyph-name="Ydieresis" unicode="&#x178;" horiz-adv-x="716" 
d="M318 0v277l-291 423h96l236 -350l238 350h92l-291 -422v-278h-80zM225 759v95h90v-95h-90zM401 759v95h90v-95h-90z" />
    <glyph glyph-name="Zcaron" unicode="&#x17d;" horiz-adv-x="693" 
d="M67 0v53l453 576h-438v71h546v-53l-454 -576h454v-71h-561zM317 762l-106 131h66l75 -67l75 67h64l-106 -131h-68z" />
    <glyph glyph-name="zcaron" unicode="&#x17e;" horiz-adv-x="556" 
d="M56 0v49l343 403h-331v65h436v-49l-344 -403h344v-65h-448zM253 595l-106 131h66l75 -67l75 67h64l-106 -131h-68z" />
    <glyph glyph-name="florin" unicode="&#x192;" horiz-adv-x="514" 
d="M93 -5c-22 0 -38 2 -52 4v66c14 -3 27 -4 44 -4c42 0 68 23 78 76l44 236h-98v67h109l23 119c19 100 65 146 156 146c34 0 57 -3 81 -11v-66c-24 6 -48 10 -69 10c-52 0 -78 -26 -90 -90l-20 -108h144v-67h-156l-45 -244c-17 -93 -64 -134 -149 -134z" />
    <glyph glyph-name="circumflex" unicode="&#x2c6;" 
d="M110 595l106 131h68l106 -131h-66l-75 67l-75 -67h-64z" />
    <glyph glyph-name="caron" unicode="&#x2c7;" 
d="M216 595l-106 131h66l75 -67l75 67h64l-106 -131h-68z" />
    <glyph glyph-name="breve" unicode="&#x2d8;" 
d="M250 593c-83 0 -142 49 -148 133h56c12 -42 41 -69 92 -69s80 27 92 69h56c-6 -84 -65 -133 -148 -133z" />
    <glyph glyph-name="dotaccent" unicode="&#x2d9;" 
d="M203 595v96h94v-96h-94z" />
    <glyph glyph-name="ring" unicode="&#x2da;" 
d="M250 593c-55 0 -104 45 -104 101c0 54 49 99 104 99s104 -45 104 -101c0 -54 -49 -99 -104 -99zM250 631c33 0 62 28 62 63c0 33 -28 61 -62 61s-62 -28 -62 -63c0 -33 29 -61 62 -61z" />
    <glyph glyph-name="ogonek" unicode="&#x2db;" 
d="M360 -164c-117 -6 -177 40 -177 108c0 24 6 47 14 66h60c-4 -17 -6 -35 -6 -51c0 -51 34 -78 109 -82v-41z" />
    <glyph glyph-name="tilde" unicode="&#x2dc;" 
d="M133 586l-47 13c20 75 47 105 95 105c45 0 100 -40 134 -40c26 0 37 13 52 49l47 -13c-20 -75 -47 -105 -95 -105c-45 0 -100 40 -134 40c-26 0 -37 -13 -52 -49z" />
    <glyph glyph-name="hungarumlaut" unicode="&#x2dd;" 
d="M84 595l95 145l75 -37l-108 -108h-62zM248 595l95 145l75 -37l-109 -108h-61z" />
    <glyph glyph-name="Omega" unicode="&#x3a9;" horiz-adv-x="789" 
d="M78 0v66h192v76c-122 33 -192 146 -192 269c0 178 145 297 317 297c170 0 315 -120 315 -296c0 -123 -69 -237 -192 -270v-76h192v-66h-252v189c116 19 174 107 174 220c0 134 -104 230 -239 230c-134 0 -237 -97 -237 -230c0 -108 60 -206 174 -220v-189h-252z" />
    <glyph glyph-name="pi" unicode="&#x3c0;" 
d="M0 0v700h500v-700h-500zM81 49h339l-170 255zM49 96l171 254l-171 254v-508zM450 96v508l-171 -254zM250 395l170 255h-339z" />
    <glyph glyph-name="afii10023" unicode="&#x401;" horiz-adv-x="670" 
d="M99 0v700h506v-72h-427v-239h382v-72h-382v-245h432v-72h-511zM222 762v95h90v-95h-90zM398 762v95h90v-95h-90z" />
    <glyph glyph-name="afii10051" unicode="&#x402;" horiz-adv-x="882" 
d="M564 -23c-37 0 -70 7 -103 20l18 68c24 -11 44 -15 77 -15c73 0 159 45 159 171c0 99 -64 166 -161 166c-89 0 -154 -28 -219 -86v-301h-80v628h-207v72h555v-72h-268v-247c67 51 138 80 228 80c136 0 234 -84 234 -239c0 -157 -98 -245 -233 -245z" />
    <glyph glyph-name="afii10052" unicode="&#x403;" horiz-adv-x="589" 
d="M99 0v700h447v-72h-368v-628h-79zM257 762l95 145l80 -37l-113 -108h-62z" />
    <glyph glyph-name="afii10053" unicode="&#x404;" horiz-adv-x="739" 
d="M419 -12c-202 0 -351 159 -351 362c0 198 148 362 354 362c127 0 199 -49 269 -115l-50 -54c-59 56 -125 97 -220 97c-142 0 -251 -107 -268 -251h352v-72h-353c15 -146 126 -257 269 -257c96 0 155 39 222 103l58 -52c-73 -74 -155 -123 -282 -123z" />
    <glyph glyph-name="afii10054" unicode="&#x405;" horiz-adv-x="640" 
d="M339 -10c-111 0 -202 37 -286 112l49 58c73 -66 143 -99 240 -99c94 0 156 50 156 121c0 65 -35 102 -182 133c-161 35 -235 87 -235 204c0 110 97 191 230 191c102 0 175 -29 246 -86l-46 -61c-65 53 -130 76 -202 76c-91 0 -149 -50 -149 -115c0 -66 36 -103 190 -136
c156 -34 228 -91 228 -200c0 -120 -100 -198 -239 -198z" />
    <glyph glyph-name="afii10055" unicode="&#x406;" horiz-adv-x="291" 
d="M106 0v700h79v-700h-79z" />
    <glyph glyph-name="afii10056" unicode="&#x407;" horiz-adv-x="291" 
d="M106 0v700h79v-700h-79zM13 762v95h90v-95h-90zM189 762v95h90v-95h-90z" />
    <glyph glyph-name="afii10057" unicode="&#x408;" horiz-adv-x="553" 
d="M247 -10c-105 0 -172 52 -216 124l57 49c43 -65 87 -100 160 -100c79 0 137 57 137 168v469h80v-468c0 -82 -24 -144 -64 -184c-39 -38 -92 -58 -154 -58z" />
    <glyph glyph-name="afii10058" unicode="&#x409;" horiz-adv-x="1155" 
d="M86 -8c-31 0 -73 10 -91 17l16 64c11 -5 40 -10 62 -10c54 0 145 33 145 510v127h443v-271h177c150 0 272 -60 272 -206c0 -137 -101 -223 -260 -223h-268v628h-288v-76c0 -491 -100 -560 -208 -560zM661 72h187c112 0 183 50 183 149c0 91 -72 137 -188 137h-182v-286z
" />
    <glyph glyph-name="afii10059" unicode="&#x40a;" horiz-adv-x="1154" 
d="M99 0v700h79v-290h403v290h80v-290h196c139 0 252 -60 252 -198c0 -129 -93 -212 -246 -212h-282v337h-403v-337h-79zM661 72h192c113 0 175 48 175 140c0 84 -64 129 -179 129h-188v-269z" />
    <glyph glyph-name="afii10060" unicode="&#x40b;" horiz-adv-x="882" 
d="M256 0v628h-208v72h554v-72h-267v-258c67 51 138 81 228 81c136 0 234 -71 234 -207v-244h-79v228c0 89 -63 149 -162 149c-89 0 -154 -30 -221 -90v-287h-79z" />
    <glyph glyph-name="afii10061" unicode="&#x40c;" horiz-adv-x="719" 
d="M99 0v700h79v-418l402 418h102l-300 -306l313 -394h-99l-269 339l-149 -151v-188h-79zM312 762l95 145l80 -37l-113 -108h-62z" />
    <glyph glyph-name="afii10062" unicode="&#x40e;" horiz-adv-x="729" 
d="M202 -12c-46 0 -81 10 -118 29l31 63c28 -15 52 -21 89 -21c48 0 99 27 140 105l-308 536h90l258 -457l223 457h86l-277 -553c-57 -115 -131 -159 -214 -159zM384 758c-76 0 -131 52 -143 123l54 11c12 -43 40 -70 89 -70s77 27 89 70l54 -11c-12 -71 -67 -123 -143 -123
z" />
    <glyph glyph-name="afii10145" unicode="&#x40f;" horiz-adv-x="750" 
d="M339 -156v156h-240v700h79v-628h394v628h79v-700h-233v-156h-79z" />
    <glyph glyph-name="afii10017" unicode="&#x410;" horiz-adv-x="790" 
d="M39 0l319 705h74l319 -705h-85l-82 185h-381l-83 -185h-81zM234 256h319l-159 357z" />
    <glyph glyph-name="afii10018" unicode="&#x411;" horiz-adv-x="708" 
d="M99 0v700h502v-72h-423v-215h207c149 0 266 -63 266 -204c0 -137 -102 -209 -258 -209h-294zM178 72h209c113 0 185 40 185 141c0 88 -73 130 -189 130h-205v-271z" />
    <glyph glyph-name="afii10019" unicode="&#x412;" horiz-adv-x="722" 
d="M99 0v700h298c80 0 144 -22 183 -62c29 -30 45 -67 45 -114c0 -91 -56 -138 -111 -162c83 -25 150 -73 150 -171c0 -120 -101 -191 -254 -191h-311zM177 71h235c106 0 172 47 172 127c0 76 -64 120 -186 120h-221v-247zM177 388h207c95 0 161 43 161 127
c0 69 -55 114 -155 114h-213v-241z" />
    <glyph glyph-name="afii10020" unicode="&#x413;" horiz-adv-x="589" 
d="M99 0v700h447v-72h-368v-628h-79z" />
    <glyph glyph-name="afii10021" unicode="&#x414;" horiz-adv-x="754" 
d="M10 -156v228h72c67 107 106 279 106 506v122h458v-628h91l-12 -228h-66v156h-568l-14 -156h-67zM171 72h396v556h-303v-91c0 -181 -35 -369 -93 -465z" />
    <glyph glyph-name="afii10022" unicode="&#x415;" horiz-adv-x="670" 
d="M99 0v700h506v-72h-427v-239h382v-72h-382v-245h432v-72h-511z" />
    <glyph glyph-name="afii10024" unicode="&#x416;" horiz-adv-x="1089" 
d="M24 0l288 400l-270 300h98l365 -413v413h79v-413l365 413h98l-270 -300l288 -400h-98l-245 341l-138 -153v-188h-79v188l-139 153l-244 -341h-98z" />
    <glyph glyph-name="afii10025" unicode="&#x417;" horiz-adv-x="636" 
d="M331 -12c-121 0 -210 38 -292 113l47 55c71 -67 145 -100 246 -100c86 0 163 52 163 135c0 91 -82 129 -189 129h-77v65h77c100 0 171 49 171 132c0 72 -66 125 -158 125c-79 0 -145 -24 -206 -79l-46 55c70 60 143 93 254 93c139 0 236 -79 236 -187
c0 -94 -64 -142 -128 -165c83 -25 147 -79 147 -172c0 -111 -99 -199 -245 -199z" />
    <glyph glyph-name="afii10026" unicode="&#x418;" horiz-adv-x="770" 
d="M99 0v700h79v-581l418 581h75v-700h-78v581l-417 -581h-77z" />
    <glyph glyph-name="afii10027" unicode="&#x419;" horiz-adv-x="770" 
d="M99 0v700h79v-581l418 581h75v-700h-78v581l-417 -581h-77zM390 758c-76 0 -131 52 -143 123l54 11c12 -43 40 -70 89 -70s77 27 89 70l54 -11c-12 -71 -67 -123 -143 -123z" />
    <glyph glyph-name="afii10028" unicode="&#x41a;" horiz-adv-x="719" 
d="M99 0v700h79v-418l402 418h102l-300 -306l313 -394h-99l-269 339l-149 -151v-188h-79z" />
    <glyph glyph-name="afii10029" unicode="&#x41b;" horiz-adv-x="770" 
d="M86 -8c-31 0 -73 10 -91 17l16 64c11 -5 40 -10 62 -10c54 0 145 33 145 510v127h453v-700h-79v628h-298v-76c0 -491 -100 -560 -208 -560z" />
    <glyph glyph-name="afii10030" unicode="&#x41c;" horiz-adv-x="868" 
d="M99 0v700h80l255 -382l255 382h80v-700h-79v567l-255 -375h-4l-255 374v-566h-77z" />
    <glyph glyph-name="afii10031" unicode="&#x41d;" horiz-adv-x="760" 
d="M99 0v700h79v-311h404v311h79v-700h-79v315h-404v-315h-79z" />
    <glyph glyph-name="afii10032" unicode="&#x41e;" horiz-adv-x="850" 
d="M424 -12c-213 0 -356 167 -356 362c0 193 145 362 358 362s356 -167 356 -362c0 -193 -145 -362 -358 -362zM426 61c160 0 274 128 274 289c0 159 -116 289 -276 289s-274 -128 -274 -289c0 -159 116 -289 276 -289z" />
    <glyph glyph-name="afii10033" unicode="&#x41f;" horiz-adv-x="750" 
d="M99 0v700h552v-700h-79v628h-394v-628h-79z" />
    <glyph glyph-name="afii10034" unicode="&#x420;" horiz-adv-x="668" 
d="M99 0v700h262c158 0 262 -84 262 -224c0 -151 -126 -229 -275 -229h-170v-247h-79zM178 319h173c116 0 192 62 192 156c0 100 -75 152 -188 152h-177v-308z" />
    <glyph glyph-name="afii10035" unicode="&#x421;" horiz-adv-x="738" 
d="M419 -12c-202 0 -351 159 -351 362c0 198 148 362 354 362c127 0 201 -47 271 -113l-52 -56c-59 56 -125 96 -220 96c-155 0 -271 -126 -271 -289c0 -162 117 -289 271 -289c96 0 159 37 226 101l52 -55c-73 -74 -153 -119 -280 -119z" />
    <glyph glyph-name="afii10036" unicode="&#x422;" horiz-adv-x="648" 
d="M284 0v628h-235v72h550v-72h-235v-628h-80z" />
    <glyph glyph-name="afii10037" unicode="&#x423;" horiz-adv-x="729" 
d="M202 -12c-46 0 -81 10 -118 29l31 63c28 -15 52 -21 89 -21c48 0 99 27 140 105l-308 536h90l258 -457l223 457h86l-277 -553c-57 -115 -131 -159 -214 -159z" />
    <glyph glyph-name="afii10038" unicode="&#x424;" horiz-adv-x="897" 
d="M409 -26v77c-226 0 -354 120 -354 302s129 301 354 301v69h79v-69c225 0 354 -119 354 -301s-128 -302 -354 -302v-77h-79zM409 123v459c-173 0 -272 -82 -272 -230c0 -149 99 -229 272 -229zM488 123c173 0 272 80 272 229c0 148 -99 230 -272 230v-459z" />
    <glyph glyph-name="afii10039" unicode="&#x425;" horiz-adv-x="725" 
d="M46 0l269 357l-259 343h93l215 -286l213 286h92l-259 -342l269 -358h-94l-224 301l-224 -301h-91z" />
    <glyph glyph-name="afii10040" unicode="&#x426;" horiz-adv-x="765" 
d="M670 -156v156h-571v700h79v-628h400v628h79v-628h91l-12 -228h-66z" />
    <glyph glyph-name="afii10041" unicode="&#x427;" horiz-adv-x="695" 
d="M517 0v299c-54 -31 -150 -69 -218 -69c-136 0 -226 70 -226 206v264h79v-251c0 -89 55 -145 153 -145c71 0 153 33 212 68v328h79v-700h-79z" />
    <glyph glyph-name="afii10042" unicode="&#x428;" horiz-adv-x="1103" 
d="M99 0v700h79v-628h334v628h79v-628h334v628h79v-700h-905z" />
    <glyph glyph-name="afii10043" unicode="&#x429;" horiz-adv-x="1112" 
d="M1017 -156v156h-918v700h79v-628h334v628h79v-628h334v628h79v-628h91l-12 -228h-66z" />
    <glyph glyph-name="afii10044" unicode="&#x42a;" horiz-adv-x="801" 
d="M228 0v628h-184v72h263v-271h177c150 0 272 -60 272 -206c0 -137 -101 -223 -260 -223h-268zM307 72h187c112 0 183 50 183 149c0 91 -72 137 -188 137h-182v-286z" />
    <glyph glyph-name="afii10045" unicode="&#x42b;" horiz-adv-x="895" 
d="M99 0v700h79v-271h177c150 0 272 -60 272 -206c0 -137 -101 -223 -260 -223h-268zM178 72h187c112 0 183 50 183 149c0 91 -72 137 -188 137h-182v-286zM717 0v700h79v-700h-79z" />
    <glyph glyph-name="afii10046" unicode="&#x42c;" horiz-adv-x="672" 
d="M99 0v700h79v-271h177c150 0 272 -60 272 -206c0 -137 -101 -223 -260 -223h-268zM178 72h187c112 0 183 50 183 149c0 91 -72 137 -188 137h-182v-286z" />
    <glyph glyph-name="afii10047" unicode="&#x42d;" horiz-adv-x="739" 
d="M319 -12c-127 0 -209 49 -282 123l58 52c67 -64 126 -103 222 -103c143 0 254 111 269 257h-353v72h352c-17 144 -126 251 -268 251c-95 0 -161 -41 -220 -97l-50 54c70 66 142 115 269 115c206 0 354 -164 354 -362c0 -203 -149 -362 -351 -362z" />
    <glyph glyph-name="afii10048" unicode="&#x42e;" horiz-adv-x="1050" 
d="M649 -12c-187 0 -315 141 -329 328h-142v-316h-79v700h79v-312h142c16 183 146 324 331 324c198 0 331 -158 331 -361s-135 -363 -333 -363zM651 60c146 0 250 125 250 290c0 163 -106 290 -252 290s-249 -125 -249 -290c0 -163 105 -290 251 -290z" />
    <glyph glyph-name="afii10049" unicode="&#x42f;" horiz-adv-x="725" 
d="M42 0l219 281c-112 20 -191 91 -191 208c0 54 18 106 53 140c43 43 114 71 204 71h299v-700h-79v268h-201l-208 -268h-96zM332 335h215v294h-215c-115 0 -183 -57 -183 -146c0 -91 76 -148 183 -148z" />
    <glyph glyph-name="afii10065" unicode="&#x430;" horiz-adv-x="579" 
d="M240 -11c-97 0 -193 55 -193 163c0 111 90 169 221 169c66 0 112 -9 158 -22v16c0 92 -56 140 -153 140c-61 0 -109 -15 -157 -37l-23 63c57 26 112 44 188 44c73 0 130 -20 167 -57c36 -36 54 -86 54 -152v-316h-76v77c-36 -46 -95 -88 -186 -88zM255 51
c95 0 172 57 172 139v48c-38 11 -88 22 -151 22c-96 0 -151 -42 -151 -106c0 -65 60 -103 130 -103z" />
    <glyph glyph-name="afii10066" unicode="&#x431;" horiz-adv-x="647" 
d="M329 -12c-157 0 -262 111 -262 291c0 167 13 327 193 370l288 68l15 -65l-280 -69c-107 -27 -143 -85 -151 -184c36 61 104 112 214 112c135 0 248 -115 248 -257c0 -144 -112 -266 -265 -266zM331 57c107 0 183 87 183 195s-81 195 -185 195c-107 0 -183 -87 -183 -195
s81 -195 185 -195z" />
    <glyph glyph-name="afii10067" unicode="&#x432;" horiz-adv-x="586" 
d="M86 0v517h250c103 0 169 -51 169 -129c0 -68 -43 -101 -86 -119c62 -17 114 -55 114 -128c0 -87 -74 -141 -188 -141h-259zM163 66h172c74 0 119 33 119 87c0 50 -45 80 -129 80h-162v-167zM163 295h159c62 0 105 29 105 83c0 43 -36 73 -103 73h-161v-156z" />
    <glyph glyph-name="afii10068" unicode="&#x433;" horiz-adv-x="463" 
d="M86 0v517h351v-68h-274v-449h-77z" />
    <glyph glyph-name="afii10069" unicode="&#x434;" horiz-adv-x="601" 
d="M10 -129v197h56c42 77 69 185 69 359v90h368v-449h78l-12 -197h-64v129h-418l-14 -129h-63zM148 68h278v381h-217v-72c0 -128 -25 -242 -61 -309z" />
    <glyph glyph-name="afii10070" unicode="&#x435;" horiz-adv-x="592" 
d="M312 -12c-142 0 -258 109 -258 270c0 150 105 270 248 270c153 0 241 -122 241 -274c0 -7 0 -15 -1 -27h-410c11 -109 91 -172 182 -172c71 0 121 29 163 73l48 -43c-52 -58 -115 -97 -213 -97zM132 289h333c-9 94 -63 174 -165 174c-89 0 -157 -74 -168 -174z" />
    <glyph glyph-name="afii10072" unicode="&#x436;" horiz-adv-x="851" 
d="M20 0l212 296l-201 221h93l263 -300v300h77v-300l263 300h93l-201 -221l212 -296h-90l-172 241l-105 -115v-126h-77v126l-105 115l-172 -241h-90z" />
    <glyph glyph-name="afii10073" unicode="&#x437;" horiz-adv-x="512" 
d="M250 -12c-82 0 -151 26 -214 77l39 57c52 -44 111 -67 173 -67c67 0 128 32 128 92c0 52 -46 85 -130 85h-69v63h70c68 0 115 35 115 89c0 48 -48 77 -112 77c-51 0 -112 -16 -157 -52l-38 54c54 42 124 65 200 65c116 0 187 -58 187 -138c0 -64 -39 -101 -83 -119
c57 -20 96 -59 96 -127c0 -83 -77 -156 -205 -156z" />
    <glyph glyph-name="afii10074" unicode="&#x438;" horiz-adv-x="631" 
d="M86 0v517h77v-409l307 409h75v-517h-77v409l-308 -409h-74z" />
    <glyph glyph-name="afii10075" unicode="&#x439;" horiz-adv-x="631" 
d="M86 0v517h77v-409l307 409h75v-517h-77v409l-308 -409h-74zM313 591c-75 0 -129 51 -141 122l53 11c12 -43 39 -70 88 -70s76 27 88 70l53 -11c-12 -71 -66 -122 -141 -122z" />
    <glyph glyph-name="afii10076" unicode="&#x43a;" horiz-adv-x="567" 
d="M86 0v517h77v-298l283 298h95l-216 -224l222 -293h-91l-184 237l-109 -112v-125h-77z" />
    <glyph glyph-name="afii10077" unicode="&#x43b;" horiz-adv-x="611" 
d="M61 -8c-17 0 -46 4 -62 8l9 66c10 -3 28 -7 37 -7c62 0 114 27 114 415v43h366v-517h-77v449h-216v-12c0 -403 -73 -445 -171 -445z" />
    <glyph glyph-name="afii10078" unicode="&#x43c;" horiz-adv-x="705" 
d="M86 0v517h73l193 -272l193 272h74v-517h-78v394l-191 -262l-189 262v-394h-75z" />
    <glyph glyph-name="afii10079" unicode="&#x43d;" horiz-adv-x="624" 
d="M86 0v517h77v-223h298v223h77v-517h-77v226h-298v-226h-77z" />
    <glyph glyph-name="afii10080" unicode="&#x43e;" horiz-adv-x="646" 
d="M322 -12c-155 0 -268 122 -268 270c0 146 114 270 270 270c155 0 269 -122 269 -270c0 -146 -115 -270 -271 -270zM324 57c112 0 190 90 190 201s-83 202 -192 202c-112 0 -189 -91 -189 -202s82 -201 191 -201z" />
    <glyph glyph-name="afii10081" unicode="&#x43f;" horiz-adv-x="620" 
d="M86 0v517h448v-517h-77v449h-294v-449h-77z" />
    <glyph glyph-name="afii10082" unicode="&#x440;" horiz-adv-x="664" 
d="M86 -160v677h77v-104c42 62 103 115 198 115c124 0 247 -98 247 -270c0 -169 -122 -269 -247 -269c-96 0 -158 52 -198 110v-259h-77zM347 58c100 0 182 74 182 201c0 122 -84 200 -182 200c-96 0 -187 -81 -187 -201s91 -200 187 -200z" />
    <glyph glyph-name="afii10083" unicode="&#x441;" horiz-adv-x="571" 
d="M319 -12c-151 0 -265 123 -265 270c0 146 114 270 265 270c98 0 159 -41 207 -92l-49 -52c-41 43 -89 76 -159 76c-105 0 -185 -89 -185 -202c0 -112 82 -201 190 -201c66 0 115 34 156 78l51 -47c-52 -58 -114 -100 -211 -100z" />
    <glyph glyph-name="afii10084" unicode="&#x442;" 
d="M211 0v449h-185v68h448v-68h-185v-449h-78z" />
    <glyph glyph-name="afii10085" unicode="&#x443;" horiz-adv-x="591" 
d="M166 -163c-43 0 -75 9 -110 26l26 61c25 -13 48 -19 81 -19c46 0 75 24 106 97l-235 515h85l188 -431l166 431h82l-217 -534c-44 -107 -94 -146 -172 -146z" />
    <glyph glyph-name="afii10086" unicode="&#x444;" horiz-adv-x="873" 
d="M397 -160v202c-33 -28 -71 -53 -129 -53c-124 0 -210 101 -210 271c0 168 86 268 210 268c59 0 96 -26 129 -56v228h78v-228c33 30 70 56 129 56c124 0 211 -100 211 -270c0 -168 -87 -269 -211 -269c-63 0 -96 25 -129 53v-202h-78zM284 57c46 0 82 18 113 51v300
c-31 33 -67 51 -113 51c-98 0 -146 -79 -146 -203s45 -199 146 -199zM589 57c101 0 146 75 146 201c0 122 -48 201 -146 201c-46 0 -82 -18 -114 -51v-300c32 -33 68 -51 114 -51z" />
    <glyph glyph-name="afii10087" unicode="&#x445;" horiz-adv-x="574" 
d="M39 0l203 263l-195 254h88l153 -200l153 200h86l-196 -252l204 -265h-89l-160 211l-161 -211h-86z" />
    <glyph glyph-name="afii10088" unicode="&#x446;" horiz-adv-x="628" 
d="M532 -129v129h-446v517h77v-449h290v449h77v-449h78l-12 -197h-64z" />
    <glyph glyph-name="afii10089" unicode="&#x447;" horiz-adv-x="577" 
d="M414 0v213c-37 -21 -112 -47 -173 -47c-102 0 -171 53 -171 155v196h77v-185c0 -61 38 -99 104 -99c55 0 121 20 163 49v235h77v-517h-77z" />
    <glyph glyph-name="afii10090" unicode="&#x448;" horiz-adv-x="908" 
d="M86 0v517h77v-449h252v449h77v-449h252v449h78v-517h-736z" />
    <glyph glyph-name="afii10091" unicode="&#x449;" horiz-adv-x="920" 
d="M824 -129v129h-738v517h77v-449h252v449h77v-449h252v449h78v-449h78l-12 -197h-64z" />
    <glyph glyph-name="afii10092" unicode="&#x44a;" horiz-adv-x="628" 
d="M176 0v449h-156v68h233v-194h138c112 0 204 -46 204 -155c0 -103 -77 -168 -195 -168h-224zM253 68h140c77 0 124 33 124 98c0 60 -48 91 -127 91h-137v-189z" />
    <glyph glyph-name="afii10093" unicode="&#x44b;" horiz-adv-x="761" 
d="M86 0v517h77v-194h138c112 0 204 -46 204 -155c0 -103 -77 -168 -195 -168h-224zM163 68h140c77 0 124 33 124 98c0 60 -48 91 -127 91h-137v-189zM598 0v517h77v-517h-77z" />
    <glyph glyph-name="afii10094" unicode="&#x44c;" horiz-adv-x="538" 
d="M86 0v517h77v-194h138c112 0 204 -46 204 -155c0 -103 -77 -168 -195 -168h-224zM163 68h140c77 0 124 33 124 98c0 60 -48 91 -127 91h-137v-189z" />
    <glyph glyph-name="afii10095" unicode="&#x44d;" horiz-adv-x="571" 
d="M252 -12c-99 0 -160 38 -212 100l51 48c41 -45 89 -81 156 -81c99 0 179 76 190 173h-236v65h235c-10 92 -88 168 -185 168c-71 0 -119 -33 -160 -77l-45 50c48 54 111 94 210 94c151 0 261 -125 261 -272c0 -145 -115 -268 -265 -268z" />
    <glyph glyph-name="afii10096" unicode="&#x44e;" horiz-adv-x="840" 
d="M530 -12c-145 0 -239 106 -252 239h-115v-227h-77v517h77v-225h115c15 129 110 236 254 236c156 0 255 -123 255 -270c0 -145 -100 -270 -257 -270zM532 57c111 0 175 90 175 201c0 112 -69 201 -177 201c-110 0 -174 -90 -174 -201c0 -112 69 -201 176 -201z" />
    <glyph glyph-name="afii10097" unicode="&#x44f;" horiz-adv-x="584" 
d="M40 0l158 200c-77 18 -138 72 -138 156c0 95 72 161 195 161h243v-517h-77v188h-143c-48 -63 -95 -126 -143 -188h-95zM261 253h160v196h-162c-77 0 -122 -37 -122 -96c0 -63 52 -100 124 -100z" />
    <glyph glyph-name="afii10071" unicode="&#x451;" horiz-adv-x="592" 
d="M312 -12c-142 0 -258 109 -258 270c0 150 105 270 248 270c153 0 241 -122 241 -274c0 -7 0 -15 -1 -27h-410c11 -109 91 -172 182 -172c71 0 121 29 163 73l48 -43c-52 -58 -115 -97 -213 -97zM132 289h333c-9 94 -63 174 -165 174c-89 0 -157 -74 -168 -174zM163 595
v95h90v-95h-90zM339 595v95h90v-95h-90z" />
    <glyph glyph-name="afii10099" unicode="&#x452;" horiz-adv-x="616" 
d="M343 -12c-39 0 -71 7 -102 20l15 65c23 -11 42 -16 73 -16c77 0 137 62 137 157v77c0 95 -54 157 -145 157c-89 0 -158 -68 -158 -164v-284h-77v572h-80v62h80v96h77v-96h213v-62h-213v-157c35 57 90 103 180 103c126 0 200 -86 200 -208v-115c0 -122 -74 -207 -200 -207
z" />
    <glyph glyph-name="afii10100" unicode="&#x453;" horiz-adv-x="463" 
d="M86 0v517h351v-68h-274v-449h-77zM204 595l95 145l80 -37l-113 -108h-62z" />
    <glyph glyph-name="afii10101" unicode="&#x454;" horiz-adv-x="571" 
d="M318 -12c-150 0 -265 123 -265 268c0 147 110 272 261 272c99 0 162 -40 210 -94l-45 -50c-41 44 -89 77 -160 77c-97 0 -175 -76 -185 -168h235v-65h-236c11 -97 91 -173 190 -173c67 0 115 36 156 81l51 -48c-52 -62 -113 -100 -212 -100z" />
    <glyph glyph-name="afii10102" unicode="&#x455;" horiz-adv-x="498" 
d="M257 -10c-74 0 -156 29 -214 76l39 55c56 -42 118 -66 179 -66c62 0 107 32 107 84s-61 72 -129 91c-81 23 -171 51 -171 148c0 89 74 148 176 148c63 0 133 -22 186 -57l-35 -58c-48 31 -103 50 -153 50c-61 0 -100 -32 -100 -77c0 -49 64 -68 133 -89
c80 -24 166 -55 166 -150c0 -98 -81 -155 -184 -155z" />
    <glyph glyph-name="afii10103" unicode="&#x456;" horiz-adv-x="263" 
d="M93 0v517h77v-517h-77zM88 630v85h88v-85h-88z" />
    <glyph glyph-name="afii10104" unicode="&#x457;" horiz-adv-x="263" 
d="M-1 595v95h90v-95h-90zM175 595v95h90v-95h-90zM93 0v517h77v-517h-77z" />
    <glyph glyph-name="afii10105" unicode="&#x458;" horiz-adv-x="263" 
d="M44 -163c-18 0 -31 1 -48 5v63c12 -2 27 -3 38 -3c35 0 59 21 59 69v546h77v-547c0 -91 -48 -133 -126 -133zM88 630v85h88v-85h-88z" />
    <glyph glyph-name="afii10106" unicode="&#x459;" horiz-adv-x="900" 
d="M61 -8c-17 0 -46 4 -62 8l9 66c10 -3 28 -7 37 -7c62 0 114 27 114 415v43h366v-194h138c112 0 204 -46 204 -155c0 -103 -77 -168 -195 -168h-224v449h-216v-12c0 -403 -73 -445 -171 -445zM525 68h140c77 0 124 33 124 98c0 60 -48 91 -127 91h-137v-189z" />
    <glyph glyph-name="afii10107" unicode="&#x45a;" horiz-adv-x="912" 
d="M86 0v517h77v-198h298v198h77v-198h139c111 0 202 -45 202 -154c0 -103 -77 -165 -193 -165h-225v252h-298v-252h-77zM538 68h141c76 0 123 32 123 96c0 59 -48 89 -126 89h-138v-185z" />
    <glyph glyph-name="afii10108" unicode="&#x45b;" horiz-adv-x="616" 
d="M86 0v572h-80v62h80v96h77v-96h213v-62h-213v-155c34 56 88 101 177 101c125 0 198 -84 198 -207v-311h-77v292c0 96 -52 156 -143 156c-89 0 -155 -65 -155 -162v-286h-77z" />
    <glyph glyph-name="afii10109" unicode="&#x45c;" horiz-adv-x="567" 
d="M86 0v517h77v-298l283 298h95l-216 -224l222 -293h-91l-184 237l-109 -112v-125h-77zM256 595l95 145l80 -37l-113 -108h-62z" />
    <glyph glyph-name="afii10110" unicode="&#x45e;" horiz-adv-x="591" 
d="M166 -163c-43 0 -75 9 -110 26l26 61c25 -13 48 -19 81 -19c46 0 75 24 106 97l-235 515h85l188 -431l166 431h82l-217 -534c-44 -107 -94 -146 -172 -146zM307 591c-75 0 -129 51 -141 122l53 11c12 -43 39 -70 88 -70s76 27 88 70l53 -11c-12 -71 -66 -122 -141 -122z
" />
    <glyph glyph-name="afii10193" unicode="&#x45f;" horiz-adv-x="622" 
d="M276 -129v129h-190v517h77v-449h296v449h77v-517h-184v-129h-76z" />
    <glyph glyph-name="afii10050" unicode="&#x490;" horiz-adv-x="589" 
d="M99 0v700h366v156h68l13 -228h-368v-628h-79z" />
    <glyph glyph-name="afii10098" unicode="&#x491;" horiz-adv-x="463" 
d="M86 0v517h275v129h64l12 -197h-274v-449h-77z" />
    <glyph glyph-name="endash" unicode="&#x2013;" horiz-adv-x="528" 
d="M65 262v77h398v-77h-398z" />
    <glyph glyph-name="emdash" unicode="&#x2014;" horiz-adv-x="898" 
d="M65 262v77h768v-77h-768z" />
    <glyph glyph-name="quoteleft" unicode="&#x2018;" horiz-adv-x="245" 
d="M72 478v90c0 81 34 120 110 137l12 -35c-47 -17 -67 -41 -67 -79v-8h37v-105h-92z" />
    <glyph glyph-name="quoteright" unicode="&#x2019;" horiz-adv-x="245" 
d="M63 473l-12 35c46 17 67 40 67 77v10h-36v105h92v-90c0 -81 -35 -120 -111 -137z" />
    <glyph glyph-name="quotesinglbase" unicode="&#x201a;" horiz-adv-x="245" 
d="M58 -122l-12 35c46 17 67 40 67 77v10h-36v105h92v-90c0 -81 -35 -120 -111 -137z" />
    <glyph glyph-name="quotedblleft" unicode="&#x201c;" horiz-adv-x="445" 
d="M72 478v90c0 81 34 120 110 137l12 -35c-47 -17 -67 -41 -67 -79v-8h37v-105h-92zM272 478v90c0 81 34 120 110 137l12 -35c-47 -17 -67 -41 -67 -79v-8h36v-105h-91z" />
    <glyph glyph-name="quotedblright" unicode="&#x201d;" horiz-adv-x="445" 
d="M63 473l-12 35c46 17 67 40 67 77v10h-36v105h92v-90c0 -81 -35 -120 -111 -137zM263 473l-12 35c46 17 67 40 67 77v10h-36v105h91v-90c0 -81 -34 -120 -110 -137z" />
    <glyph glyph-name="quotedblbase" unicode="&#x201e;" horiz-adv-x="445" 
d="M58 -122l-12 35c46 17 67 40 67 77v10h-36v105h92v-90c0 -81 -35 -120 -111 -137zM258 -122l-12 35c46 17 67 40 67 77v10h-36v105h91v-90c0 -81 -34 -120 -110 -137z" />
    <glyph glyph-name="dagger" unicode="&#x2020;" horiz-adv-x="410" 
d="M178 238l6 282l-124 -8v55l123 -8l-9 141h62l-9 -141l123 8v-55l-124 8l6 -282h-54z" />
    <glyph glyph-name="daggerdbl" unicode="&#x2021;" horiz-adv-x="430" 
d="M184 0l9 141l-123 -8v55l124 -8l-6 170l6 170l-124 -8v55l123 -8l-9 141h62l-9 -141l123 8v-55l-124 8l6 -170l-6 -170l124 8v-55l-123 8l9 -141h-62z" />
    <glyph glyph-name="bullet" unicode="&#x2022;" horiz-adv-x="478" 
d="M239 221c-72 0 -131 58 -131 132c0 72 61 130 131 130c69 0 131 -58 131 -132c0 -72 -59 -130 -131 -130z" />
    <glyph glyph-name="ellipsis" unicode="&#x2026;" horiz-adv-x="723" 
d="M77 0v103h89v-103h-89zM317 0v103h89v-103h-89zM557 0v103h90v-103h-90z" />
    <glyph glyph-name="perthousand" unicode="&#x2030;" horiz-adv-x="1211" 
d="M124 0l514 700h71l-513 -700h-72zM622 -8c-94 0 -157 83 -157 179c0 95 64 179 159 179s157 -83 157 -179c0 -95 -63 -179 -159 -179zM624 48c55 0 91 54 91 123c0 70 -41 123 -93 123c-54 0 -91 -55 -91 -123c0 -70 41 -123 93 -123zM999 -8c-94 0 -157 83 -157 179
c0 95 64 179 159 179s157 -83 157 -179c0 -95 -63 -179 -159 -179zM1001 48c55 0 91 54 91 123c0 70 -41 123 -93 123c-54 0 -91 -55 -91 -123c0 -70 41 -123 93 -123zM210 350c-95 0 -158 83 -158 179c0 95 64 179 160 179c94 0 157 -83 157 -179c0 -95 -64 -179 -159 -179
zM212 406c54 0 91 54 91 123c0 70 -42 123 -93 123c-55 0 -91 -55 -91 -123c0 -70 41 -123 93 -123z" />
    <glyph glyph-name="guilsinglleft" unicode="&#x2039;" horiz-adv-x="328" 
d="M210 41l-162 214v8l162 213l59 -33l-135 -183l135 -185z" />
    <glyph glyph-name="guilsinglright" unicode="&#x203a;" horiz-adv-x="328" 
d="M117 41l-58 33l135 184l-135 184l58 34l162 -213v-8z" />
    <glyph glyph-name="fraction" unicode="&#x2044;" horiz-adv-x="429" 
d="M-68 -98l467 856h76l-467 -856h-76z" />
    <glyph glyph-name="Euro" unicode="&#x20ac;" horiz-adv-x="720" 
d="M430 -12c-142 0 -248 101 -283 249h-91v63h81c-2 16 -2 31 -2 50c0 20 1 41 4 58h-83v62h94c38 140 141 242 275 242c118 0 188 -58 241 -137l-60 -43c-50 70 -99 109 -184 109c-89 0 -160 -70 -191 -171h257v-62h-270c-3 -16 -4 -37 -4 -58c0 -18 1 -34 2 -50h272v-63
h-259c30 -107 105 -178 204 -178c79 0 130 45 178 115l57 -40c-55 -83 -125 -146 -238 -146z" />
    <glyph glyph-name="afii61352" unicode="&#x2116;" horiz-adv-x="1037" 
d="M99 0v700h82l370 -557v557h78v-700h-71l-380 570v-570h-79zM715 161v56h251v-56h-251zM841 288c-80 0 -136 63 -136 139s57 140 137 140c79 0 135 -63 135 -139s-57 -140 -136 -140zM842 339c47 0 78 39 78 89c0 49 -34 88 -79 88c-47 0 -79 -39 -79 -89
c0 -49 34 -88 80 -88z" />
    <glyph glyph-name="published" unicode="&#x2117;" horiz-adv-x="830" 
d="M414 -12c-203 0 -361 163 -361 362c0 197 160 362 363 362s361 -163 361 -362c0 -197 -160 -362 -363 -362zM414 19c188 0 330 150 330 333c0 181 -141 329 -328 329c-188 0 -330 -150 -330 -333c0 -181 141 -329 328 -329zM292 172v371h146c87 0 144 -44 144 -122
c0 -83 -71 -124 -151 -124h-83v-125h-56zM348 347h84c57 0 94 27 94 75s-36 71 -93 71h-85v-146z" />
    <glyph glyph-name="trademark" unicode="&#x2122;" horiz-adv-x="690" 
d="M125 392v266h-99v42h242v-42h-99v-266h-44zM336 392v308h47l110 -169l109 169h46v-308h-43v236l-110 -167h-6l-109 167v-236h-44z" />
    <glyph glyph-name="partialdiff" unicode="&#x2202;" 
d="M0 0v700h500v-700h-500zM81 49h339l-170 255zM49 96l171 254l-171 254v-508zM450 96v508l-171 -254zM250 395l170 255h-339z" />
    <glyph glyph-name="Delta" unicode="&#x2206;" horiz-adv-x="784" 
d="M44 0l310 704h76l310 -704h-696zM160 72h462l-230 539z" />
    <glyph glyph-name="product" unicode="&#x220f;" 
d="M0 0v700h500v-700h-500zM81 49h339l-170 255zM49 96l171 254l-171 254v-508zM450 96v508l-171 -254zM250 395l170 255h-339z" />
    <glyph glyph-name="summation" unicode="&#x2211;" 
d="M0 0v700h500v-700h-500zM81 49h339l-170 255zM49 96l171 254l-171 254v-508zM450 96v508l-171 -254zM250 395l170 255h-339z" />
    <glyph glyph-name="minus" unicode="&#x2212;" horiz-adv-x="640" 
d="M89 316v74h462v-74h-462z" />
    <glyph glyph-name="radical" unicode="&#x221a;" horiz-adv-x="504" 
d="M236 -196l-170 346l-57 -18l-15 56l105 34l152 -313l209 879h66c-80 -322 -159 -645 -238 -966z" />
    <glyph glyph-name="infinity" unicode="&#x221e;" horiz-adv-x="755" 
d="M188 201c-90 0 -147 66 -147 153c0 86 56 156 145 156c80 0 140 -63 192 -115c55 52 104 115 188 115c90 0 148 -68 148 -156s-54 -153 -146 -153c-77 0 -139 55 -190 107c-55 -51 -109 -107 -190 -107zM188 267c54 0 112 50 147 86c-38 33 -94 91 -149 91
c-50 0 -80 -43 -80 -90c0 -51 31 -87 82 -87zM569 267c52 0 81 39 81 87c0 51 -30 90 -84 90s-110 -55 -145 -91c40 -38 89 -86 148 -86z" />
    <glyph glyph-name="integral" unicode="&#x222b;" 
d="M0 0v700h500v-700h-500zM81 49h339l-170 255zM49 96l171 254l-171 254v-508zM450 96v508l-171 -254zM250 395l170 255h-339z" />
    <glyph glyph-name="approxequal" unicode="&#x2248;" horiz-adv-x="640" 
d="M104 185l-50 5c11 71 44 143 126 143c86 0 201 -71 274 -71c46 0 72 34 80 75c16 -1 33 -3 50 -5c-8 -70 -47 -141 -126 -141c-86 0 -204 71 -275 71c-44 0 -72 -37 -79 -77zM104 364l-50 5c11 71 44 143 126 143c85 0 201 -71 274 -71c46 0 72 34 80 75
c16 -1 33 -3 50 -5c-8 -70 -47 -141 -126 -141c-85 0 -205 71 -275 71c-44 0 -72 -37 -79 -77z" />
    <glyph glyph-name="notequal" unicode="&#x2260;" horiz-adv-x="640" 
d="M210 75l-61 32l48 91h-108v74h147l84 159h-231v75h269c22 42 46 85 68 128l61 -31c-17 -33 -35 -65 -52 -97h115v-75h-153l-84 -159h237v-74h-276c-21 -41 -42 -82 -64 -123z" />
    <glyph glyph-name="lessequal" unicode="&#x2264;" horiz-adv-x="640" 
d="M72 0v70h496v-70h-496zM568 110c-166 63 -330 126 -496 188v79c166 62 330 125 496 188v-79l-410 -148c137 -50 273 -100 410 -149v-79z" />
    <glyph glyph-name="greaterequal" unicode="&#x2265;" horiz-adv-x="640" 
d="M72 0v70h496v-70h-496zM73 110v79c136 49 273 99 409 149l-409 148v79c165 -63 330 -126 495 -188v-79c-165 -62 -330 -125 -495 -188z" />
    <glyph glyph-name="lozenge" unicode="&#x25ca;" horiz-adv-x="640" 
d="M284 -35l-173 391l173 391h70l175 -391l-175 -391h-70zM320 41c44 105 89 210 134 315c-45 105 -90 209 -134 314l-133 -314c44 -105 88 -210 133 -315z" />
    <glyph glyph-name="cyrBreve" unicode="&#xf6d1;" 
d="M250 591c-76 0 -131 52 -143 123l54 11c12 -43 40 -70 89 -70s77 27 89 70l54 -11c-12 -71 -67 -123 -143 -123z" />
    <glyph glyph-name="cyrbreve" unicode="&#xf6d4;" 
d="M250 591c-75 0 -129 51 -141 122l53 11c12 -43 39 -70 88 -70s76 27 88 70l53 -11c-12 -71 -66 -122 -141 -122z" />
    <glyph glyph-name="apple" unicode="&#xf8ff;" 
d="M0 0v700h500v-700h-500zM81 49h339l-170 255zM49 96l171 254l-171 254v-508zM450 96v508l-171 -254zM250 395l170 255h-339z" />
    <glyph glyph-name="ff" unicode="&#xfb00;" horiz-adv-x="735" 
d="M115 0v449h-71v67h71v45c0 59 16 104 45 133c26 26 64 40 111 40c36 0 60 -4 85 -13v-67c-28 8 -49 13 -75 13c-60 0 -90 -36 -90 -110v-42h164v-66h-163v-449h-77zM483 0v449h-71v67h71v45c0 59 15 104 44 133c27 26 64 40 111 40c36 0 61 -4 85 -13v-67
c-27 8 -48 13 -74 13c-61 0 -90 -36 -90 -110v-42h163v-66h-163v-449h-76z" />
    <glyph glyph-name="NULL" horiz-adv-x="0" 
 />
    <glyph glyph-name="CR" horiz-adv-x="300" 
 />
    </font>
</defs>
</svg>
