<?xml version="1.0" standalone="no"?>
<!DOCTYPE svg PUBLIC "-//W3C//DTD SVG 1.1//EN" "http://www.w3.org/Graphics/SVG/1.1/DTD/svg11.dtd" >
<svg xmlns="http://www.w3.org/2000/svg" xmlns:xlink="http://www.w3.org/1999/xlink" version="1.1">
<metadata>
Created by FontForge 20170731 at Mon Feb 12 19:48:29 2007
 By Aleksey,,,
Copyright (c) 2007 by The Hoefler Type Foundry, Inc. 2007 Greek by Cannibal. All rights reserved.
</metadata>
<defs>
<font id="GothamGreek-Black" horiz-adv-x="500" >
  <font-face 
    font-family="Gotham Greek Black"
    font-weight="900"
    font-stretch="normal"
    units-per-em="1000"
    panose-1="2 0 5 3 9 0 0 2 0 4"
    ascent="800"
    descent="-200"
    x-height="541"
    cap-height="700"
    bbox="-302 -173 1260 932"
    underline-thickness="20"
    underline-position="-173"
    unicode-range="U+0020-FB04"
  />
<missing-glyph 
 />
    <glyph glyph-name="f_i" unicode="fi" horiz-adv-x="704" 
d="M455 590v140h198v-140h-198zM85 538v12q0 94 46 140q47 47 141 47q72 0 124 -15v-134q-36 11 -71 11q-54 0 -54 -51v-13h124v-146h-121v-389h-189v389h-63v149h63zM459 0v541h190v-541h-190z" />
    <glyph glyph-name="f_l" unicode="fl" horiz-adv-x="704" 
d="M85 0v389h-63v149h63v12q0 94 46 140q47 47 141 47q72 0 124 -15v-134q-36 11 -71 11q-54 0 -54 -51v-13h124v-146h-121v-389h-189zM459 0v730h190v-730h-190z" />
    <glyph glyph-name=".notdef" 
 />
    <glyph glyph-name=".null" horiz-adv-x="0" 
 />
    <glyph glyph-name="nonmarkingreturn" horiz-adv-x="333" 
 />
    <glyph glyph-name="space" unicode=" " horiz-adv-x="277" 
 />
    <glyph glyph-name="exclam" unicode="!" horiz-adv-x="324" 
d="M112 228l-58 387v85h216v-85l-58 -387h-100zM63 0v170h198v-170h-198z" />
    <glyph glyph-name="quotedbl" unicode="&#x22;" horiz-adv-x="537" 
d="M290 341l23 359h204v-5l-127 -354h-100zM34 341l22 359h204v-5l-127 -354h-99z" />
    <glyph glyph-name="numbersign" unicode="#" horiz-adv-x="706" 
d="M84 0l23 135h-78v161h106l19 112h-92v161h120l22 131h145l-23 -131h127l22 131h145l-22 -131h78v-161h-106l-19 -112h92v-161h-119l-24 -135h-145l24 135h-127l-23 -135h-145zM275 292h134l20 120h-133z" />
    <glyph glyph-name="dollar" unicode="$" horiz-adv-x="666" 
d="M295 -98v100q-157 17 -270 99l90 133q94 -66 186 -82v120q-126 29 -184.5 77.5t-58.5 138.5v2q0 89 63 146t176 65v57h104v-60q115 -12 211 -78l-82 -134q-59 42 -134 60v-116q124 -29 181.5 -78.5t57.5 -139.5v-2q0 -90 -64 -145t-172 -65v-98h-104zM302 447v108
q-68 -6 -68 -50v-2q0 -21 14 -33t54 -23zM395 256v-110q67 7 67 51v2q0 21 -14.5 33.5t-52.5 23.5z" />
    <glyph glyph-name="percent" unicode="%" horiz-adv-x="899" 
d="M215 333q-80 0 -130 54t-50 133v2q0 79 50.5 133.5t130.5 54.5q79 0 129.5 -54.5t50.5 -132.5v-2q0 -79 -51 -133.5t-130 -54.5zM112 0l540 700h135l-540 -700h-135zM683 -10q-79 0 -129.5 54.5t-50.5 132.5v2q0 79 50.5 133.5t130.5 54.5t130 -54t50 -133v-2
q0 -78 -51 -133t-130 -55zM216 443q26 0 42 22t16 55v2q0 33 -16.5 55.5t-42.5 22.5t-42 -22t-16 -55v-2q0 -34 17 -56t42 -22zM684 100q26 0 42 22t16 55v2q0 34 -16.5 56t-42.5 22q-27 0 -42.5 -21.5t-15.5 -55.5v-2q0 -33 17 -55.5t42 -22.5z" />
    <glyph glyph-name="ampersand" unicode="&#x26;" horiz-adv-x="698" 
d="M551 -14l-72 73q-95 -71 -208 -71q-110 0 -180 54t-70 148v2q0 132 142 196q-46 68 -46 134v2q0 79 60.5 134.5t159.5 55.5q94 0 151 -51t57 -129v-2q0 -118 -137 -182l78 -76q31 45 66 111l128 -64q-49 -89 -92 -148l94 -93zM317 437q74 33 74 86v2q0 26 -15 41t-39 15
q-25 0 -40.5 -17t-15.5 -45v-2q0 -33 36 -80zM297 131q40 0 83 30l-115 117q-50 -30 -50 -76v-2q0 -31 23 -50t59 -19z" />
    <glyph glyph-name="quotesingle" unicode="'" horiz-adv-x="284" 
d="M34 341l22 359h208v-5l-127 -354h-103z" />
    <glyph glyph-name="parenleft" unicode="(" horiz-adv-x="445" 
d="M415 -23l-79 -118q-146 77 -219 179t-73 249t73 249t219 179l79 -118q-97 -66 -141 -139.5t-44 -170.5t44 -170.5t141 -139.5z" />
    <glyph glyph-name="parenright" unicode=")" horiz-adv-x="445" 
d="M109 -141l-79 118q97 66 141 139.5t44 170.5t-44 170.5t-141 139.5l79 118q146 -77 219 -179t73 -249t-73 -249t-219 -179z" />
    <glyph glyph-name="asterisk" unicode="*" horiz-adv-x="425" 
d="M160 339l25 132l-103 -88l-54 92l127 45l-127 45l54 93l103 -88l-25 132h105l-25 -132l103 88l54 -93l-127 -45l127 -45l-54 -92l-103 88l25 -132h-105z" />
    <glyph glyph-name="plus" unicode="+" horiz-adv-x="640" 
d="M233 96v172h-169v168h169v172h174v-172h169v-168h-169v-172h-174z" />
    <glyph glyph-name="comma" unicode="," horiz-adv-x="284" 
d="M35 -165l-15 73q52 6 76.5 29.5t23.5 64.5h-77v195h198v-159q0 -106 -53 -153.5t-153 -49.5z" />
    <glyph glyph-name="hyphen" unicode="-" horiz-adv-x="408" 
d="M40 229v167h328v-167h-328z" />
    <glyph glyph-name="period" unicode="." horiz-adv-x="284" 
d="M43 0v195h198v-195h-198z" />
    <glyph glyph-name="slash" unicode="/" horiz-adv-x="535" 
d="M-38 -128l443 926h154l-443 -926h-154z" />
    <glyph glyph-name="zero" unicode="0" horiz-adv-x="730" 
d="M364 -14q-146 0 -234.5 104.5t-88.5 257.5v2q0 153 90 258.5t235 105.5t234 -104.5t89 -257.5v-2q0 -153 -89.5 -258.5t-235.5 -105.5zM366 158q58 0 93 53t35 137v2q0 84 -36.5 138t-93.5 54t-92.5 -53t-35.5 -137v-2q0 -84 36.5 -138t93.5 -54z" />
    <glyph glyph-name="one" unicode="1" horiz-adv-x="422" 
d="M163 0v524l-118 -27l-37 150l205 58h141v-705h-191z" />
    <glyph glyph-name="two" unicode="2" horiz-adv-x="624" 
d="M33 0v146l262 200q50 39 70 66.5t20 59.5q0 33 -21.5 52t-56.5 19q-34 0 -65.5 -20.5t-73.5 -69.5l-131 109q60 77 124 113.5t161 36.5q114 0 186 -62t72 -161v-2q0 -79 -38 -131t-124 -114l-120 -84h289v-158h-554z" />
    <glyph glyph-name="three" unicode="3" horiz-adv-x="621" 
d="M316 -14q-187 0 -298 124l122 122q80 -80 167 -80q42 0 66 19.5t24 51.5v2q0 34 -30 53t-84 19h-82l-28 101l161 145h-268v157h506v-139l-167 -143q82 -17 131.5 -65t49.5 -132v-2q0 -105 -75.5 -169t-194.5 -64z" />
    <glyph glyph-name="four" unicode="4" horiz-adv-x="689" 
d="M384 0v136h-339l-32 137l363 432h196v-424h89v-145h-89v-136h-188zM217 280h167v201z" />
    <glyph glyph-name="five" unicode="5" horiz-adv-x="630" 
d="M303 -14q-165 0 -284 111l111 130q90 -76 170 -76q48 0 75.5 22t27.5 60v2q0 38 -28.5 59.5t-74.5 21.5q-54 0 -112 -35l-115 64l20 355h468v-160h-315l-6 -106q53 25 112 25q101 0 170.5 -57t69.5 -165v-2q0 -115 -79.5 -182t-209.5 -67z" />
    <glyph glyph-name="six" unicode="6" horiz-adv-x="662" 
d="M341 -14q-134 0 -214 80q-86 86 -86 262v2q0 171 83.5 277.5t241.5 106.5q72 0 126 -18.5t107 -58.5l-91 -137q-71 53 -139 53q-60 0 -92.5 -40t-39.5 -109q71 54 151 54q97 0 164 -58.5t67 -159.5v-2q0 -114 -80 -183t-198 -69zM333 137q45 0 71 25.5t26 64.5v2
q0 39 -27 64.5t-72 25.5t-71 -25t-26 -64v-2q0 -39 27 -65t72 -26z" />
    <glyph glyph-name="seven" unicode="7" horiz-adv-x="614" 
d="M62 0l308 537h-324v163h539v-146l-309 -554h-214z" />
    <glyph glyph-name="eight" unicode="8" horiz-adv-x="630" 
d="M315 -12q-127 0 -207.5 57t-80.5 148v2q0 117 120 168q-96 54 -96 152v2q0 85 73.5 140t190.5 55t190.5 -55t73.5 -140v-2q0 -98 -96 -152q120 -54 120 -167v-2q0 -93 -80.5 -149.5t-207.5 -56.5zM315 416q39 0 62.5 21.5t23.5 54.5v2q0 30 -24 52t-62 22
q-39 0 -62.5 -21.5t-23.5 -51.5v-2q0 -33 23.5 -55t62.5 -22zM315 133q47 0 74 22.5t27 56.5v2q0 34 -28 55t-73 21t-73 -21t-28 -55v-2q0 -34 27 -56.5t74 -22.5z" />
    <glyph glyph-name="nine" unicode="9" horiz-adv-x="662" 
d="M297 -14q-140 0 -244 83l91 134q69 -56 150 -56q59 0 92 38t40 108q-59 -57 -148 -57q-104 0 -169.5 60t-65.5 161v2q0 115 78.5 185t200.5 70q133 0 215 -82q84 -84 84 -259v-2q0 -176 -84.5 -280.5t-239.5 -104.5zM331 375q45 0 71.5 26t26.5 65v2q0 42 -27.5 68.5
t-72.5 26.5t-71.5 -26t-26.5 -68v-2q0 -40 27.5 -66t72.5 -26z" />
    <glyph glyph-name="colon" unicode=":" horiz-adv-x="294" 
d="M48 346v195h198v-195h-198zM48 0v195h198v-195h-198z" />
    <glyph glyph-name="semicolon" unicode=";" horiz-adv-x="294" 
d="M48 346v195h198v-195h-198zM40 -167l-15 73q52 6 76.5 29.5t23.5 64.5h-77v195h198v-159q0 -106 -53 -153.5t-153 -49.5z" />
    <glyph glyph-name="less" unicode="&#x3c;" horiz-adv-x="644" 
d="M562 65l-497 198v177l497 198v-177l-327 -109l327 -109v-178z" />
    <glyph glyph-name="equal" unicode="=" horiz-adv-x="639" 
d="M74 403v167h491v-167h-491zM74 134v167h491v-167h-491z" />
    <glyph glyph-name="greater" unicode="&#x3e;" horiz-adv-x="644" 
d="M82 65v177l327 109l-327 109v178l497 -198v-177z" />
    <glyph glyph-name="question" unicode="?" horiz-adv-x="540" 
d="M191 228l-25 167l8 9q85 8 121 27.5t36 52.5v1q0 55 -75 55q-74 0 -146 -66l-100 132q105 105 259 105q112 0 181 -56.5t69 -153.5v-2q0 -161 -195 -207l-12 -64h-121zM150 0v170h197v-170h-197z" />
    <glyph glyph-name="at" unicode="@" horiz-adv-x="965" 
d="M491 -162q-192 0 -319 126.5t-127 310.5q0 182 128 310.5t315 128.5q182 0 306.5 -116t124.5 -273q0 -128 -62.5 -198t-150.5 -70q-110 0 -154 76q-66 -74 -147 -74q-79 0 -131 55.5t-52 145.5q0 107 65.5 183.5t155.5 76.5q85 0 134 -74l12 61l155 -24l-46 -258
q-4 -20 -4 -44q0 -26 17.5 -42.5t47.5 -16.5q51 0 84.5 53.5t33.5 149.5q0 142 -111 245.5t-278 103.5q-173 0 -287 -116t-114 -283q0 -170 113.5 -283.5t290.5 -113.5q129 0 245 67l20 -32q-123 -75 -265 -75zM455 194q40 0 68 33.5t28 81.5q0 35 -20 55.5t-53 20.5
q-40 0 -68 -33t-28 -80q0 -37 20 -57.5t53 -20.5z" />
    <glyph glyph-name="A" unicode="A" horiz-adv-x="795" 
d="M6 0l298 705h187l298 -705h-208l-51 125h-270l-50 -125h-204zM317 276h157l-78 199z" />
    <glyph glyph-name="B" unicode="B" horiz-adv-x="715" 
d="M62 0v700h359q128 0 191 -63q45 -45 45 -113v-2q0 -110 -108 -156q68 -22 103.5 -62.5t35.5 -108.5v-2q0 -91 -69.5 -142t-195.5 -51h-361zM251 421h122q92 0 92 61v2q0 60 -88 60h-126v-123zM251 156h150q93 0 93 64v2q0 63 -95 63h-148v-129z" />
    <glyph glyph-name="C" unicode="C" horiz-adv-x="730" 
d="M399 -14q-151 0 -256 103.5t-105 258.5v2q0 154 105.5 259t263.5 105q195 0 297 -146l-146 -113q-64 82 -153 82q-72 0 -119.5 -53.5t-47.5 -131.5v-2q0 -80 47 -133.5t120 -53.5q51 0 87.5 21.5t70.5 63.5l146 -104q-56 -76 -128.5 -117t-181.5 -41z" />
    <glyph glyph-name="D" unicode="D" horiz-adv-x="765" 
d="M62 0v700h270q185 0 290 -95.5t105 -250.5v-2q0 -156 -107 -254t-292 -98h-266zM256 172h79q88 0 140.5 46.5t52.5 130.5v2q0 83 -52.5 130t-140.5 47h-79v-356z" />
    <glyph glyph-name="E" unicode="E" horiz-adv-x="667" 
d="M62 0v700h563v-165h-371v-106h336v-153h-336v-111h376v-165h-568z" />
    <glyph glyph-name="F" unicode="F" horiz-adv-x="648" 
d="M62 0v700h560v-170h-366v-119h331v-161h-331v-250h-194z" />
    <glyph glyph-name="G" unicode="G" horiz-adv-x="769" 
d="M419 -14q-164 0 -272.5 102t-108.5 260v2q0 154 107.5 259t269.5 105q164 0 284 -102l-114 -137q-78 66 -169 66q-75 0 -127 -56t-52 -136v-2q0 -85 53.5 -139.5t136.5 -54.5q68 0 112 29v85h-138v142h322v-315q-133 -108 -304 -108z" />
    <glyph glyph-name="H" unicode="H" horiz-adv-x="761" 
d="M62 0v700h194v-262h249v262h194v-700h-194v266h-249v-266h-194z" />
    <glyph glyph-name="I" unicode="I" horiz-adv-x="327" 
d="M66 0v700h195v-700h-195z" />
    <glyph glyph-name="J" unicode="J" horiz-adv-x="564" 
d="M250 -12q-161 0 -246 118l125 118q55 -65 109 -65q38 0 59 25t21 73v443h193v-444q0 -128 -69 -197q-71 -71 -192 -71z" />
    <glyph glyph-name="K" unicode="K" horiz-adv-x="730" 
d="M62 0v700h194v-284l241 284h230l-265 -301l274 -399h-233l-176 260l-71 -79v-181h-194z" />
    <glyph glyph-name="L" unicode="L" horiz-adv-x="616" 
d="M62 0v700h194v-530h339v-170h-533z" />
    <glyph glyph-name="M" unicode="M" horiz-adv-x="868" 
d="M62 0v700h205l167 -271l167 271h205v-700h-193v402l-179 -274h-4l-178 272v-400h-190z" />
    <glyph glyph-name="N" unicode="N" horiz-adv-x="785" 
d="M62 0v700h181l288 -370v370h192v-700h-170l-299 384v-384h-192z" />
    <glyph glyph-name="O" unicode="O" horiz-adv-x="831" 
d="M414 -14q-161 0 -268.5 105.5t-107.5 256.5v2q0 152 108.5 258t269.5 106t268.5 -105.5t107.5 -256.5v-2q0 -152 -108.5 -258t-269.5 -106zM416 161q78 0 128 54.5t50 132.5v2q0 77 -51 133t-129 56t-127.5 -54.5t-49.5 -132.5v-2q0 -77 50.5 -133t128.5 -56z" />
    <glyph glyph-name="P" unicode="P" horiz-adv-x="673" 
d="M62 0v700h300q134 0 212.5 -65t78.5 -181v-2q0 -120 -83 -186t-218 -66h-96v-200h-194zM256 352h92q52 0 81.5 24.5t29.5 66.5v2q0 45 -29 68.5t-83 23.5h-91v-185z" />
    <glyph glyph-name="Q" unicode="Q" horiz-adv-x="831" 
d="M704 -21l-77 69q-95 -62 -213 -62q-161 0 -268.5 105t-107.5 257v2q0 152 108.5 258t269.5 106t268.5 -105t107.5 -257v-2q0 -113 -62 -201l72 -61zM416 158q37 0 71 13l-97 83l98 110l95 -86q12 32 12 68v2q0 79 -51 135t-130 56q-78 0 -127.5 -55.5t-49.5 -133.5v-2
q0 -78 50.5 -134t128.5 -56z" />
    <glyph glyph-name="R" unicode="R" horiz-adv-x="719" 
d="M62 0v700h331q154 0 228 -76q62 -60 62 -163v-2q0 -154 -144 -215l167 -244h-224l-141 212h-2h-83v-212h-194zM256 364h128q50 0 77 22t27 61v2q0 83 -105 83h-127v-168z" />
    <glyph glyph-name="S" unicode="S" horiz-adv-x="652" 
d="M337 -12q-197 0 -328 116l108 129q105 -84 227 -84q80 0 80 48v2q0 22 -24.5 37t-93.5 30q-51 12 -85 22.5t-71 28t-58.5 39.5t-35.5 55t-14 75v2q0 100 73.5 162t197.5 62q172 0 288 -93l-97 -137q-98 69 -196 69q-34 0 -52 -12.5t-18 -32.5v-2q0 -24 25 -38t96 -30
q131 -29 196 -77t65 -141v-2q0 -106 -77 -167t-206 -61z" />
    <glyph glyph-name="T" unicode="T" horiz-adv-x="660" 
d="M233 0v530h-210v170h614v-170h-210v-530h-194z" />
    <glyph glyph-name="U" unicode="U" horiz-adv-x="758" 
d="M377 -13q-154 0 -239 79.5t-85 240.5v393h197v-389q0 -74 34 -111.5t95 -37.5t95 36t34 108v394h197v-388q0 -164 -86.5 -244.5t-241.5 -80.5z" />
    <glyph glyph-name="V" unicode="V" horiz-adv-x="760" 
d="M290 -5l-284 705h217l159 -443l159 443h213l-284 -705h-180z" />
    <glyph glyph-name="W" unicode="W" horiz-adv-x="1117" 
d="M249 -5l-234 705h205l122 -405l135 407h167l135 -407l122 405h201l-234 -705h-169l-141 403l-140 -403h-169z" />
    <glyph glyph-name="X" unicode="X" horiz-adv-x="732" 
d="M11 0l240 356l-230 344h223l124 -197l125 197h218l-230 -342l240 -358h-223l-134 211l-135 -211h-218z" />
    <glyph glyph-name="Y" unicode="Y" horiz-adv-x="723" 
d="M264 0v262l-266 438h221l144 -255l145 255h217l-266 -435v-265h-195z" />
    <glyph glyph-name="Z" unicode="Z" horiz-adv-x="698" 
d="M40 0v141l351 395h-339v164h607v-141l-351 -395h351v-164h-619z" />
    <glyph glyph-name="bracketleft" unicode="[" horiz-adv-x="457" 
d="M66 -130v830h346v-129h-176v-572h176v-129h-346z" />
    <glyph glyph-name="backslash" unicode="\" horiz-adv-x="535" 
d="M419 -128l-443 926h154l443 -926h-154z" />
    <glyph glyph-name="bracketright" unicode="]" horiz-adv-x="457" 
d="M45 -130v129h176v572h-176v129h346v-830h-346z" />
    <glyph glyph-name="asciicircum" unicode="^" 
d="M42 493l144 206h128l144 -206h-133l-76 97l-76 -97h-131z" />
    <glyph glyph-name="underscore" unicode="_" horiz-adv-x="600" 
d="M-2 -160v116h604v-116h-604z" />
    <glyph glyph-name="grave" unicode="`" 
d="M235 587l-147 128l177 57l104 -185h-134z" />
    <glyph glyph-name="a" unicode="a" horiz-adv-x="599" 
d="M206 -12q-80 0 -131 44t-51 123v2q0 82 57 126t155 44q71 0 130 -21v9q0 88 -108 88q-73 0 -149 -30l-39 134q102 42 219 42q140 0 206 -66q58 -57 58 -172v-311h-188v56q-61 -68 -159 -68zM274 107q42 0 68 24t26 65v25q-33 14 -74 14t-64 -18t-23 -49v-2
q0 -27 18.5 -43t48.5 -16z" />
    <glyph glyph-name="b" unicode="b" horiz-adv-x="676" 
d="M406 -12q-98 0 -165 78v-66h-190v730h190v-261q69 84 164 84q100 0 170 -77t70 -203v-2q0 -128 -69.5 -205.5t-169.5 -77.5zM347 147q48 0 79.5 34.5t31.5 88.5v2q0 54 -31.5 88t-79.5 34q-46 0 -78 -34.5t-32 -87.5v-2q0 -53 32 -88t78 -35z" />
    <glyph glyph-name="c" unicode="c" horiz-adv-x="569" 
d="M312 -13q-121 0 -202 82.5t-81 198.5v2q0 117 82 199.5t208 82.5q153 0 231 -121l-129 -96q-43 57 -101 57q-45 0 -75.5 -35t-30.5 -85v-2q0 -52 30.5 -87.5t77.5 -35.5q32 0 55.5 13.5t48.5 42.5l127 -92q-83 -124 -241 -124z" />
    <glyph glyph-name="d" unicode="d" horiz-adv-x="676" 
d="M270 -12q-100 0 -169.5 77t-69.5 203v2q0 128 69 205.5t169 77.5q98 0 166 -78v255h190v-730h-190v72q-69 -84 -165 -84zM328 147q46 0 78 35t32 88v2q0 53 -32 87.5t-78 34.5t-78.5 -34.5t-32.5 -87.5v-2q0 -53 32.5 -88t78.5 -35z" />
    <glyph glyph-name="e" unicode="e" horiz-adv-x="605" 
d="M319 -13q-128 0 -209 78t-81 203v2q0 120 77 201.5t196 81.5q133 0 203 -84t70 -212v-19q0 -13 -1 -20h-362q22 -89 117 -89q65 0 120 55l105 -87q-85 -110 -235 -110zM209 315h188q-5 45 -30 71.5t-64 26.5q-37 0 -61.5 -26t-32.5 -72z" />
    <glyph glyph-name="f" unicode="f" horiz-adv-x="404" 
d="M85 0v389h-63v149h63v12q0 94 46 140q47 47 141 47q72 0 124 -15v-134q-36 11 -71 11q-54 0 -54 -51v-13h124v-146h-121v-389h-189z" />
    <glyph glyph-name="g" unicode="g" horiz-adv-x="676" 
d="M317 -162q-149 0 -271 62l61 126q94 -51 189 -51q142 0 142 133v21q-72 -81 -167 -81q-102 0 -171 69t-69 182v2q0 113 68.5 182.5t165.5 69.5q98 0 170 -76v64h190v-411q0 -146 -70 -216q-76 -76 -238 -76zM328 194q48 0 79 30t31 75v2q0 45 -31 74.5t-79 29.5
t-79.5 -30t-31.5 -75v-2q0 -45 31 -74.5t80 -29.5z" />
    <glyph glyph-name="h" unicode="h" horiz-adv-x="634" 
d="M51 0v730h190v-263q67 86 162 86q87 0 135.5 -53t48.5 -146v-354h-190v293q0 44 -20.5 67.5t-55.5 23.5q-36 0 -58 -23.5t-22 -67.5v-293h-190z" />
    <glyph glyph-name="i" unicode="i" horiz-adv-x="300" 
d="M51 590v140h198v-140h-198zM55 0v541h190v-541h-190z" />
    <glyph glyph-name="j" unicode="j" horiz-adv-x="302" 
d="M51 590v140h198v-140h-198zM52 -163q-24 0 -78 7v126q4 -1 13 -1h12q29 0 42.5 14.5t13.5 48.5v509h190v-517q0 -99 -48.5 -143t-144.5 -44z" />
    <glyph glyph-name="k" unicode="k" horiz-adv-x="603" 
d="M51 0v730h190v-370l147 181h215l-188 -217l193 -324h-209l-109 184l-49 -57v-127h-190z" />
    <glyph glyph-name="l" unicode="l" horiz-adv-x="300" 
d="M55 0v730h190v-730h-190z" />
    <glyph glyph-name="m" unicode="m" horiz-adv-x="971" 
d="M51 0v541h190v-74q67 86 161 86q110 0 156 -88q75 88 181 88q87 0 136 -51.5t49 -146.5v-355h-190v294q0 44 -19.5 67t-54.5 23t-56.5 -23t-21.5 -67v-294h-190v294q0 44 -19.5 67t-54.5 23t-56 -23t-21 -67v-294h-190z" />
    <glyph glyph-name="n" unicode="n" horiz-adv-x="634" 
d="M51 0v541h190v-76q68 88 162 88q87 0 135.5 -53t48.5 -146v-354h-190v293q0 44 -20.5 67.5t-55.5 23.5q-36 0 -58 -23.5t-22 -67.5v-293h-190z" />
    <glyph glyph-name="o" unicode="o" horiz-adv-x="656" 
d="M327 -13q-128 0 -213 82t-85 199v2q0 118 86 200.5t214 82.5t213 -81.5t85 -199.5v-2q0 -118 -86 -200.5t-214 -82.5zM329 148q50 0 81.5 35t31.5 85v2q0 50 -33 86t-82 36q-50 0 -81.5 -35t-31.5 -85v-2q0 -50 33 -86t82 -36z" />
    <glyph glyph-name="p" unicode="p" horiz-adv-x="676" 
d="M51 -160v701h190v-72q69 84 164 84q100 0 170 -77t70 -203v-2q0 -128 -69.5 -205.5t-169.5 -77.5q-98 0 -165 78v-226h-190zM347 147q48 0 79.5 34.5t31.5 88.5v2q0 54 -31.5 88t-79.5 34q-46 0 -78 -34.5t-32 -87.5v-2q0 -53 32 -88t78 -35z" />
    <glyph glyph-name="q" unicode="q" horiz-adv-x="676" 
d="M435 -160v232q-69 -84 -165 -84q-100 0 -169.5 77t-69.5 203v2q0 128 69 205.5t169 77.5q98 0 166 -78v66h190v-701h-190zM328 147q46 0 78 35t32 88v2q0 53 -32 87.5t-78 34.5t-78.5 -34.5t-32.5 -87.5v-2q0 -53 32.5 -88t78.5 -35z" />
    <glyph glyph-name="r" unicode="r" horiz-adv-x="428" 
d="M51 0v541h190v-109q51 123 171 118v-200h-16q-155 0 -155 -182v-168h-190z" />
    <glyph glyph-name="s" unicode="s" horiz-adv-x="514" 
d="M266 -12q-145 0 -256 80l71 115q95 -62 186 -62q48 0 48 29v2q0 14 -19 23t-68 23q-46 12 -76 24t-59 32t-43 49t-14 68v2q0 84 60.5 131.5t156.5 47.5q124 0 223 -63l-65 -120q-90 50 -160 50q-44 0 -44 -26v-2q0 -14 19 -23.5t69 -24.5q94 -25 143 -62.5t49 -109.5v-2
q0 -87 -60 -134t-161 -47z" />
    <glyph glyph-name="t" unicode="t" horiz-adv-x="431" 
d="M266 -11q-89 0 -135.5 42.5t-46.5 136.5v220h-64v153h64v137h190v-137h126v-153h-126v-183q0 -54 52 -54q34 0 72 18v-149q-57 -31 -132 -31z" />
    <glyph glyph-name="u" unicode="u" horiz-adv-x="634" 
d="M231 -12q-87 0 -135.5 53t-48.5 146v354h190v-293q0 -44 20.5 -67.5t56.5 -23.5q35 0 57 23.5t22 67.5v293h190v-541h-190v74q-67 -86 -162 -86z" />
    <glyph glyph-name="v" unicode="v" horiz-adv-x="625" 
d="M226 -4l-216 545h200l104 -316l104 316h197l-216 -545h-173z" />
    <glyph glyph-name="w" unicode="w" horiz-adv-x="861" 
d="M177 -4l-165 545h186l71 -272l83 274h157l84 -276l73 274h183l-167 -545h-164l-88 281l-90 -281h-163z" />
    <glyph glyph-name="x" unicode="x" horiz-adv-x="589" 
d="M8 0l182 273l-179 268h205l80 -133l80 133h201l-178 -267l182 -274h-204l-84 139l-85 -139h-200z" />
    <glyph glyph-name="y" unicode="y" horiz-adv-x="626" 
d="M211 -163q-88 0 -174 47l59 133q47 -29 83 -29q28 0 44 22l-212 531h199l108 -326l102 326h195l-198 -528q-37 -97 -81.5 -136.5t-124.5 -39.5z" />
    <glyph glyph-name="z" unicode="z" horiz-adv-x="563" 
d="M32 0v125l250 265h-241v151h493v-125l-251 -265h251v-151h-502z" />
    <glyph glyph-name="braceleft" unicode="{" horiz-adv-x="490" 
d="M458 -30l-29 -111q-146 18 -205 63.5t-59 129.5q0 7 1.5 36t1.5 38q0 55 -28 76.5t-90 21.5h-16v126h16q62 0 90 21.5t28 76.5q0 9 -1.5 38t-1.5 36q0 84 59 129.5t205 63.5l29 -111q-77 -17 -100.5 -40.5t-23.5 -72.5q0 -8 1.5 -33.5t1.5 -36.5q0 -103 -112 -134
q112 -31 112 -134q0 -11 -1.5 -36.5t-1.5 -33.5q0 -49 23.5 -72.5t100.5 -40.5z" />
    <glyph glyph-name="bar" unicode="|" horiz-adv-x="355" 
d="M105 -128v926h145v-926h-145z" />
    <glyph glyph-name="braceright" unicode="}" horiz-adv-x="490" 
d="M61 -141l-29 111q77 17 100.5 40.5t23.5 72.5q0 8 -1.5 33.5t-1.5 36.5q0 103 112 134q-112 31 -112 134q0 11 1.5 36.5t1.5 33.5q0 49 -23.5 72.5t-100.5 40.5l29 111q146 -18 205 -63.5t59 -129.5q0 -7 -1.5 -36t-1.5 -38q0 -55 28 -76.5t90 -21.5h16v-126h-16
q-62 0 -90 -21.5t-28 -76.5q0 -9 1.5 -38t1.5 -36q0 -84 -59 -129.5t-205 -63.5z" />
    <glyph glyph-name="asciitilde" unicode="~" horiz-adv-x="505" 
d="M133 220l-92 25q18 78 46 113.5t78 35.5q34 0 88.5 -19.5t67.5 -19.5q20 0 30 10.5t21 35.5l92 -25q-18 -78 -46 -113.5t-78 -35.5q-33 0 -88.5 19.5t-68.5 19.5q-20 0 -29.5 -10t-20.5 -36z" />
    <glyph glyph-name="exclamdown" unicode="&#xa1;" horiz-adv-x="324" 
d="M63 530v170h198v-170h-198zM54 0v85l58 387h100l58 -387v-85h-216z" />
    <glyph glyph-name="cent" unicode="&#xa2;" horiz-adv-x="575" 
d="M202 -6l17 98q-84 28 -135.5 99.5t-51.5 161.5v2q0 118 79 198.5t205 82.5l12 70h115l-15 -87q81 -30 126 -97l-116 -89q-20 24 -47 40l-46 -252q51 7 95 57l115 -84q-78 -115 -224 -119l-14 -81h-115zM253 238l45 253q-45 -7 -73 -45t-28 -89v-2q0 -81 56 -117z" />
    <glyph glyph-name="sterling" unicode="&#xa3;" horiz-adv-x="639" 
d="M44 0v115l75 29v119h-75v136h75v51q0 124 69 193t191 69q144 0 233 -101l-118 -129q-49 57 -102 57q-38 0 -59 -23.5t-21 -65.5v-51h216v-136h-216v-110h293v-153h-561z" />
    <glyph glyph-name="currency" unicode="&#xa4;" horiz-adv-x="562" 
d="M548 529l-52 -49q36 -56 36 -126q0 -71 -35 -127l49 -47l-86 -98l-56 56q-58 -33 -123 -33q-64 0 -124 33l-54 -54l-90 96l52 48q-36 56 -36 126q0 71 37 126l-51 49l88 97l55 -56q58 33 123 33t123 -33l56 55zM394 354q0 47 -33.5 81t-79.5 34q-47 0 -80.5 -34
t-33.5 -81q0 -48 33.5 -82t80.5 -34t80 34t33 82z" />
    <glyph glyph-name="yen" unicode="&#xa5;" horiz-adv-x="708" 
d="M258 0v93h-184v120h184v50h-184v120h138l-208 317h220l132 -230l132 230h216l-209 -317h139v-120h-184v-50h184v-120h-184v-93h-192z" />
    <glyph glyph-name="brokenbar" unicode="&#xa6;" horiz-adv-x="355" 
d="M105 415v383h145v-383h-145zM105 -127v383h145v-383h-145z" />
    <glyph glyph-name="section" unicode="&#xa7;" horiz-adv-x="626" 
d="M309 -13q-147 0 -237 79l77 109q84 -59 164 -59q54 0 54 30v2q0 14 -22 23.5t-75 21.5q-44 10 -72.5 18t-61 21t-51 27t-31 34.5t-12.5 45.5v2q0 77 91 110q-47 36 -47 99v2q0 70 60 115.5t171 45.5q147 0 237 -79l-77 -109q-84 59 -164 59q-54 0 -54 -30v-2
q0 -14 21.5 -24t75.5 -21q111 -24 169.5 -56t58.5 -90v-2q0 -77 -91 -110q47 -37 47 -98v-2q0 -70 -60 -116t-171 -46zM387 297q51 0 51 35v2q0 16 -24 27.5t-77 23.5q-71 18 -99 18q-51 0 -51 -35v-2q0 -16 24.5 -27.5t76.5 -23.5q72 -18 99 -18z" />
    <glyph glyph-name="dieresis" unicode="&#xa8;" 
d="M277 587v143h165v-143h-165zM58 587v143h165v-143h-165z" />
    <glyph glyph-name="copyright" unicode="&#xa9;" horiz-adv-x="830" 
d="M414 -14q-151 0 -256 107t-105 255v2q0 149 105.5 256.5t257.5 107.5q151 0 256 -107t105 -255v-2q0 -149 -105.5 -256.5t-257.5 -107.5zM414 26q136 0 228.5 95t92.5 229v2q0 134 -92 228t-227 94q-136 0 -228.5 -95t-92.5 -229v-2q0 -134 92 -228t227 -94zM420 156
q-87 0 -144 56.5t-57 140.5v2q0 83 58 141t146 58q103 0 162 -79l-81 -64q-38 45 -84 45q-39 0 -64.5 -28.5t-25.5 -71.5v-2q0 -43 25.5 -71.5t64.5 -28.5q47 0 86 46l82 -58q-64 -86 -168 -86z" />
    <glyph glyph-name="ordfeminine" unicode="&#xaa;" horiz-adv-x="390" 
d="M144 397q-44 0 -72 23.5t-28 67.5v2q0 46 31 69.5t86 23.5q44 0 71 -11v4q0 49 -60 49q-40 0 -82 -17l-21 74q54 23 120 23q77 0 114 -37q32 -32 32 -95v-170h-104v32q-33 -38 -87 -38zM41 270v77h299v-77h-299zM181 463q24 0 38 13t14 36v13q-22 8 -41 8q-21 0 -34 -10
t-13 -26v-2q0 -15 10 -23.5t26 -8.5z" />
    <glyph glyph-name="guillemotleft" unicode="&#xab;" horiz-adv-x="631" 
d="M465 30l-176 234v8l176 234l136 -67l-130 -171l130 -170zM190 30l-160 214v48l160 214l137 -67l-130 -171l130 -170z" />
    <glyph glyph-name="uni00AD" unicode="&#xad;" horiz-adv-x="408" 
d="M40 229v167h328v-167h-328z" />
    <glyph glyph-name="registered" unicode="&#xae;" horiz-adv-x="830" 
d="M414 -14q-151 0 -256 107t-105 255v2q0 149 105.5 256.5t257.5 107.5q151 0 256 -107t105 -255v-2q0 -149 -105.5 -256.5t-257.5 -107.5zM414 26q136 0 228.5 95t92.5 229v2q0 134 -92 228t-227 94q-136 0 -228.5 -95t-92.5 -229v-2q0 -134 92 -228t227 -94zM256 168v385
h179q87 0 130 -43q33 -33 33 -88v-2q0 -85 -79 -118l92 -134h-123l-78 117h-2h-45v-117h-107zM363 368h70q58 0 58 45v2q0 46 -59 46h-69v-93z" />
    <glyph glyph-name="macron" unicode="&#xaf;" 
d="M62 592v116h376v-116h-376z" />
    <glyph glyph-name="degree" unicode="&#xb0;" horiz-adv-x="472" 
d="M236 352q-74 0 -128 52t-54 124v2q0 72 54.5 125t127.5 53t127.5 -53t54.5 -125v-2q0 -72 -54 -124t-128 -52zM236 444q36 0 60 24.5t24 59.5v2q0 36 -24.5 60.5t-59.5 24.5t-59.5 -25t-24.5 -60v-2q0 -35 24 -59.5t60 -24.5z" />
    <glyph glyph-name="twosuperior" unicode="&#xb2;" horiz-adv-x="415" 
d="M51 301v92l131 100q27 21 37 29.5t18 21t8 25.5q0 14 -9.5 22.5t-25.5 8.5q-32 0 -75 -53l-84 70q38 48 74.5 69.5t92.5 21.5q66 0 108 -36.5t42 -94.5q0 -49 -25 -79.5t-85 -72.5l-31 -22h144v-102h-320z" />
    <glyph glyph-name="threesuperior" unicode="&#xb3;" horiz-adv-x="415" 
d="M209 297q-106 0 -174 76l78 78q45 -48 91 -48q42 0 42 32q0 33 -55 33h-51l-18 65l79 70h-137v101h294v-87l-85 -71q92 -26 92 -114q0 -61 -43.5 -98t-112.5 -37z" />
    <glyph glyph-name="acute" unicode="&#xb4;" 
d="M131 587l104 185l177 -57l-147 -128h-134z" />
    <glyph glyph-name="mu" unicode="&#xb5;" horiz-adv-x="638" 
d="M319 -6q-62 0 -79 74v-228h-189v701h189v-289q0 -49 20 -75.5t57 -26.5q36 0 58 24t22 68v299h190v-541h-184v68q-7 -28 -27.5 -51t-56.5 -23z" />
    <glyph glyph-name="paragraph" unicode="&#xb6;" horiz-adv-x="596" 
d="M339 0v220h-21q-133 0 -214.5 62t-81.5 175v2q0 115 79 178t214 63h219v-700h-195z" />
    <glyph glyph-name="periodcentered" unicode="&#xb7;" horiz-adv-x="284" 
d="M43 215v195h198v-195h-198z" />
    <glyph glyph-name="cedilla" unicode="&#xb8;" 
d="M260 -173l-151 64l92 124h125z" />
    <glyph glyph-name="onesuperior" unicode="&#xb9;" horiz-adv-x="415" 
d="M172 301v286l-63 -14l-24 96l121 35h86v-403h-120z" />
    <glyph glyph-name="ordmasculine" unicode="&#xba;" horiz-adv-x="390" 
d="M194 395q-69 0 -115 44.5t-46 108.5v2q0 65 47 110t116 45t115 -44.5t46 -108.5v-2q0 -65 -46.5 -110t-116.5 -45zM51 270v77h288v-77h-288zM196 484q27 0 43 18t16 46v2q0 28 -17 47.5t-44 19.5q-26 0 -42.5 -18.5t-16.5 -46.5v-2q0 -28 17 -47t44 -19z" />
    <glyph glyph-name="guillemotright" unicode="&#xbb;" horiz-adv-x="631" 
d="M441 30l-136 67l130 171l-130 170l136 68l160 -214v-48zM167 30l-137 67l130 171l-130 170l137 68l175 -234v-8z" />
    <glyph glyph-name="onehalf" unicode="&#xbd;" horiz-adv-x="957" 
d="M112 0l539 700h135l-539 -700h-135zM144 297v286l-62 -15l-25 97l122 35h86v-403h-121zM565 0v92l147 111q47 38 47 64q0 32 -35 32q-18 0 -34 -12t-41 -41l-84 69q37 48 74 69.5t93 21.5q66 0 107.5 -36t41.5 -94q0 -50 -25 -80.5t-84 -71.5l-31 -22h144v-102h-320z" />
    <glyph glyph-name="questiondown" unicode="&#xbf;" horiz-adv-x="540" 
d="M193 530v170h198v-170h-198zM271 -11q-111 0 -180 56.5t-69 153.5v2q0 88 51.5 136.5t143.5 70.5l11 64h121l26 -167l-9 -9q-157 -12 -157 -80v-1q0 -26 20 -40.5t56 -14.5q73 0 145 66l101 -132q-105 -105 -260 -105z" />
    <glyph glyph-name="Agrave" unicode="&#xc0;" horiz-adv-x="795" 
d="M6 0l298 705h187l298 -705h-208l-51 125h-270l-50 -125h-204zM317 276h157l-78 199zM343 747l-147 128l177 57l104 -185h-134z" />
    <glyph glyph-name="Aacute" unicode="&#xc1;" horiz-adv-x="795" 
d="M6 0l298 705h187l298 -705h-208l-51 125h-270l-50 -125h-204zM317 276h157l-78 199zM319 747l104 185l177 -57l-147 -128h-134z" />
    <glyph glyph-name="Acircumflex" unicode="&#xc2;" horiz-adv-x="795" 
d="M6 0l298 705h187l298 -705h-208l-51 125h-270l-50 -125h-204zM317 276h157l-78 199zM193 747l128 165h154l128 -165h-122l-84 61l-84 -61h-120z" />
    <glyph glyph-name="Atilde" unicode="&#xc3;" horiz-adv-x="795" 
d="M6 0l298 705h187l298 -705h-208l-51 125h-270l-50 -125h-204zM317 276h157l-78 199zM278 740l-91 25q16 77 45 113t79 36q34 0 88.5 -19.5t67.5 -19.5q20 0 30 10.5t21 35.5l91 -25q-16 -77 -45 -113t-79 -36q-33 0 -88 19.5t-68 19.5q-20 0 -30 -10.5t-21 -35.5z" />
    <glyph glyph-name="Adieresis" unicode="&#xc4;" horiz-adv-x="795" 
d="M6 0l298 705h187l298 -705h-208l-51 125h-270l-50 -125h-204zM317 276h157l-78 199zM425 747v143h165v-143h-165zM206 747v143h165v-143h-165z" />
    <glyph glyph-name="Aring" unicode="&#xc5;" horiz-adv-x="795" 
d="M6 0l290 687q-31 34 -31 77v2q0 51 39.5 88.5t93.5 37.5q52 0 92 -37.5t40 -88.5v-2q0 -43 -31 -77l290 -687h-208l-51 125h-270l-50 -125h-204zM398 698q27 0 46.5 19.5t19.5 46.5v2q0 26 -19.5 45.5t-46.5 19.5q-28 0 -47.5 -19.5t-19.5 -45.5v-2q0 -27 19.5 -46.5
t47.5 -19.5zM317 276h157l-78 199z" />
    <glyph glyph-name="AE" unicode="&#xc6;" horiz-adv-x="1063" 
d="M-5 0l370 700h655v-165h-349v-106h314v-153h-314v-111h354v-165h-543v125h-226l-65 -125h-196zM334 276h148v265h-12z" />
    <glyph glyph-name="Ccedilla" unicode="&#xc7;" horiz-adv-x="730" 
d="M381 -173l-151 64l78 106q-119 31 -194.5 126t-75.5 225v2q0 154 105.5 259t263.5 105q195 0 297 -146l-146 -113q-64 82 -153 82q-72 0 -119.5 -53.5t-47.5 -131.5v-2q0 -80 47 -133.5t120 -53.5q51 0 87.5 21.5t70.5 63.5l146 -104q-101 -142 -272 -156z" />
    <glyph glyph-name="Egrave" unicode="&#xc8;" horiz-adv-x="667" 
d="M62 0v700h563v-165h-371v-106h336v-153h-336v-111h376v-165h-568zM313 747l-147 128l177 57l104 -185h-134z" />
    <glyph glyph-name="Eacute" unicode="&#xc9;" horiz-adv-x="667" 
d="M62 0v700h563v-165h-371v-106h336v-153h-336v-111h376v-165h-568zM252 747l104 185l177 -57l-147 -128h-134z" />
    <glyph glyph-name="Ecircumflex" unicode="&#xca;" horiz-adv-x="667" 
d="M62 0v700h563v-165h-371v-106h336v-153h-336v-111h376v-165h-568zM140 747l128 165h154l128 -165h-122l-84 61l-84 -61h-120z" />
    <glyph glyph-name="Edieresis" unicode="&#xcb;" horiz-adv-x="667" 
d="M62 0v700h563v-165h-371v-106h336v-153h-336v-111h376v-165h-568zM372 747v143h165v-143h-165zM153 747v143h165v-143h-165z" />
    <glyph glyph-name="Igrave" unicode="&#xcc;" horiz-adv-x="327" 
d="M66 0v700h195v-700h-195zM106 747l-147 128l177 57l104 -185h-134z" />
    <glyph glyph-name="Iacute" unicode="&#xcd;" horiz-adv-x="327" 
d="M66 0v700h195v-700h-195zM87 747l104 185l177 -57l-147 -128h-134z" />
    <glyph glyph-name="Icircumflex" unicode="&#xce;" horiz-adv-x="327" 
d="M66 0v700h195v-700h-195zM-42 747l129 165h154l128 -165h-122l-84 61l-84 -61h-121z" />
    <glyph glyph-name="Idieresis" unicode="&#xcf;" horiz-adv-x="327" 
d="M66 0v700h195v-700h-195zM191 747v143h165v-143h-165zM-29 747v143h166v-143h-166z" />
    <glyph glyph-name="Eth" unicode="&#xd0;" horiz-adv-x="815" 
d="M111 0v276h-80v153h80v271h270q185 0 290 -95.5t105 -250.5v-2q0 -156 -107 -254t-292 -98h-266zM299 167h85q91 0 142 48t51 134v2q0 86 -51.5 134t-141.5 48h-85v-104h119v-153h-119v-109z" />
    <glyph glyph-name="Ntilde" unicode="&#xd1;" horiz-adv-x="785" 
d="M62 0v700h181l288 -370v370h192v-700h-170l-299 384v-384h-192zM273 740l-91 25q16 77 45 113t79 36q34 0 88.5 -19.5t67.5 -19.5q20 0 30 10.5t21 35.5l91 -25q-16 -77 -45 -113t-79 -36q-34 0 -89 19.5t-67 19.5q-20 0 -30 -10.5t-21 -35.5z" />
    <glyph glyph-name="Ograve" unicode="&#xd2;" horiz-adv-x="831" 
d="M414 -14q-161 0 -268.5 105.5t-107.5 256.5v2q0 152 108.5 258t269.5 106t268.5 -105.5t107.5 -256.5v-2q0 -152 -108.5 -258t-269.5 -106zM416 161q78 0 128 54.5t50 132.5v2q0 77 -51 133t-129 56t-127.5 -54.5t-49.5 -132.5v-2q0 -77 50.5 -133t128.5 -56zM351 747
l-147 128l177 57l104 -185h-134z" />
    <glyph glyph-name="Oacute" unicode="&#xd3;" horiz-adv-x="831" 
d="M414 -14q-161 0 -268.5 105.5t-107.5 256.5v2q0 152 108.5 258t269.5 106t268.5 -105.5t107.5 -256.5v-2q0 -152 -108.5 -258t-269.5 -106zM416 161q78 0 128 54.5t50 132.5v2q0 77 -51 133t-129 56t-127.5 -54.5t-49.5 -132.5v-2q0 -77 50.5 -133t128.5 -56zM347 747
l104 185l177 -57l-147 -128h-134z" />
    <glyph glyph-name="Ocircumflex" unicode="&#xd4;" horiz-adv-x="831" 
d="M414 -14q-161 0 -268.5 105.5t-107.5 256.5v2q0 152 108.5 258t269.5 106t268.5 -105.5t107.5 -256.5v-2q0 -152 -108.5 -258t-269.5 -106zM416 161q78 0 128 54.5t50 132.5v2q0 77 -51 133t-129 56t-127.5 -54.5t-49.5 -132.5v-2q0 -77 50.5 -133t128.5 -56zM211 745
l128 165h154l128 -165h-122l-84 61l-84 -61h-120z" />
    <glyph glyph-name="Otilde" unicode="&#xd5;" horiz-adv-x="831" 
d="M414 -14q-161 0 -268.5 105.5t-107.5 256.5v2q0 152 108.5 258t269.5 106t268.5 -105.5t107.5 -256.5v-2q0 -152 -108.5 -258t-269.5 -106zM416 161q78 0 128 54.5t50 132.5v2q0 77 -51 133t-129 56t-127.5 -54.5t-49.5 -132.5v-2q0 -77 50.5 -133t128.5 -56zM296 740
l-91 25q16 77 45 113t79 36q34 0 88.5 -19.5t67.5 -19.5q20 0 30 10.5t21 35.5l91 -25q-16 -77 -45 -113t-79 -36q-33 0 -88 19.5t-68 19.5q-20 0 -30 -10.5t-21 -35.5z" />
    <glyph glyph-name="Odieresis" unicode="&#xd6;" horiz-adv-x="831" 
d="M414 -14q-161 0 -268.5 105.5t-107.5 256.5v2q0 152 108.5 258t269.5 106t268.5 -105.5t107.5 -256.5v-2q0 -152 -108.5 -258t-269.5 -106zM416 161q78 0 128 54.5t50 132.5v2q0 77 -51 133t-129 56t-127.5 -54.5t-49.5 -132.5v-2q0 -77 50.5 -133t128.5 -56zM443 747
v143h165v-143h-165zM224 747v143h165v-143h-165z" />
    <glyph glyph-name="Oslash" unicode="&#xd8;" horiz-adv-x="831" 
d="M414 -14q-112 0 -198 53l-39 -44h-147l100 112q-92 100 -92 241v2q0 152 108.5 258t269.5 106q113 0 198 -53l39 44h147l-99 -113q91 -102 91 -240v-2q0 -152 -108.5 -258t-269.5 -106zM258 253l237 271q-35 19 -81 19q-79 0 -129.5 -56t-50.5 -135v-2q0 -54 24 -97z
M416 157q80 0 130.5 56t50.5 135v2q0 54 -24 97l-238 -271q37 -19 81 -19z" />
    <glyph glyph-name="Ugrave" unicode="&#xd9;" horiz-adv-x="758" 
d="M377 -13q-154 0 -239 79.5t-85 240.5v393h197v-389q0 -74 34 -111.5t95 -37.5t95 36t34 108v394h197v-388q0 -164 -86.5 -244.5t-241.5 -80.5zM323 742l-147 128l177 57l104 -185h-134z" />
    <glyph glyph-name="Uacute" unicode="&#xda;" horiz-adv-x="758" 
d="M377 -13q-154 0 -239 79.5t-85 240.5v393h197v-389q0 -74 34 -111.5t95 -37.5t95 36t34 108v394h197v-388q0 -164 -86.5 -244.5t-241.5 -80.5zM301 742l104 185l177 -57l-147 -128h-134z" />
    <glyph glyph-name="Ucircumflex" unicode="&#xdb;" horiz-adv-x="758" 
d="M377 -13q-154 0 -239 79.5t-85 240.5v393h197v-389q0 -74 34 -111.5t95 -37.5t95 36t34 108v394h197v-388q0 -164 -86.5 -244.5t-241.5 -80.5zM174 747l128 165h154l128 -165h-122l-84 61l-84 -61h-120z" />
    <glyph glyph-name="Udieresis" unicode="&#xdc;" horiz-adv-x="758" 
d="M377 -13q-154 0 -239 79.5t-85 240.5v393h197v-389q0 -74 34 -111.5t95 -37.5t95 36t34 108v394h197v-388q0 -164 -86.5 -244.5t-241.5 -80.5zM406 747v143h165v-143h-165zM187 747v143h165v-143h-165z" />
    <glyph glyph-name="Yacute" unicode="&#xdd;" horiz-adv-x="723" 
d="M264 0v262l-266 438h221l144 -255l145 255h217l-266 -435v-265h-195zM281 745l104 185l177 -57l-147 -128h-134z" />
    <glyph glyph-name="Thorn" unicode="&#xde;" horiz-adv-x="682" 
d="M62 0v700h194v-100h106q135 0 213 -63.5t78 -179.5v-2q0 -121 -83 -185.5t-218 -64.5h-96v-105h-194zM256 260h92q52 0 81.5 24.5t29.5 66.5v2q0 45 -29 68t-83 23h-91v-184z" />
    <glyph glyph-name="germandbls" unicode="&#xdf;" horiz-adv-x="635" 
d="M307 -3v136q54 3 83.5 24t29.5 57v2q0 69 -113 81v101q82 43 82 107v2q0 33 -19.5 53t-49.5 20q-36 0 -58 -25t-22 -72v-483h-189v479q0 119 71 189.5t201 70.5q114 0 182 -59.5t68 -149.5v-2q0 -111 -104 -164q58 -18 98.5 -61t40.5 -109v-2q0 -98 -84 -150.5
t-217 -44.5z" />
    <glyph glyph-name="agrave" unicode="&#xe0;" horiz-adv-x="599" 
d="M206 -12q-80 0 -131 44t-51 123v2q0 82 57 126t155 44q71 0 130 -21v9q0 88 -108 88q-73 0 -149 -30l-39 134q102 42 219 42q140 0 206 -66q58 -57 58 -172v-311h-188v56q-61 -68 -159 -68zM274 107q42 0 68 24t26 65v25q-33 14 -74 14t-64 -18t-23 -49v-2
q0 -27 18.5 -43t48.5 -16zM252 589l-147 128l177 57l104 -185h-134z" />
    <glyph glyph-name="aacute" unicode="&#xe1;" horiz-adv-x="599" 
d="M206 -12q-80 0 -131 44t-51 123v2q0 82 57 126t155 44q71 0 130 -21v9q0 88 -108 88q-73 0 -149 -30l-39 134q102 42 219 42q140 0 206 -66q58 -57 58 -172v-311h-188v56q-61 -68 -159 -68zM274 107q42 0 68 24t26 65v25q-33 14 -74 14t-64 -18t-23 -49v-2
q0 -27 18.5 -43t48.5 -16zM216 589l104 185l177 -57l-147 -128h-134z" />
    <glyph glyph-name="acircumflex" unicode="&#xe2;" horiz-adv-x="599" 
d="M206 -12q-80 0 -131 44t-51 123v2q0 82 57 126t155 44q71 0 130 -21v9q0 88 -108 88q-73 0 -149 -30l-39 134q102 42 219 42q140 0 206 -66q58 -57 58 -172v-311h-188v56q-61 -68 -159 -68zM274 107q42 0 68 24t26 65v25q-33 14 -74 14t-64 -18t-23 -49v-2
q0 -27 18.5 -43t48.5 -16zM92 587l128 165h154l128 -165h-122l-84 61l-84 -61h-120z" />
    <glyph glyph-name="atilde" unicode="&#xe3;" horiz-adv-x="599" 
d="M206 -12q-80 0 -131 44t-51 123v2q0 82 57 126t155 44q71 0 130 -21v9q0 88 -108 88q-73 0 -149 -30l-39 134q102 42 219 42q140 0 206 -66q58 -57 58 -172v-311h-188v56q-61 -68 -159 -68zM274 107q42 0 68 24t26 65v25q-33 14 -74 14t-64 -18t-23 -49v-2
q0 -27 18.5 -43t48.5 -16zM179 580l-91 25q16 77 45 113t79 36q34 0 88.5 -19.5t67.5 -19.5q20 0 30 10.5t21 35.5l91 -25q-16 -77 -45 -113t-79 -36q-34 0 -89 19.5t-67 19.5q-20 0 -30 -10.5t-21 -35.5z" />
    <glyph glyph-name="adieresis" unicode="&#xe4;" horiz-adv-x="599" 
d="M206 -12q-80 0 -131 44t-51 123v2q0 82 57 126t155 44q71 0 130 -21v9q0 88 -108 88q-73 0 -149 -30l-39 134q102 42 219 42q140 0 206 -66q58 -57 58 -172v-311h-188v56q-61 -68 -159 -68zM274 107q42 0 68 24t26 65v25q-33 14 -74 14t-64 -18t-23 -49v-2
q0 -27 18.5 -43t48.5 -16zM324 589v143h165v-143h-165zM105 589v143h165v-143h-165z" />
    <glyph glyph-name="aring" unicode="&#xe5;" horiz-adv-x="599" 
d="M206 -12q-80 0 -131 44t-51 123v2q0 82 57 126t155 44q71 0 130 -21v9q0 88 -108 88q-73 0 -149 -30l-39 134q102 42 219 42q140 0 206 -66q58 -57 58 -172v-311h-188v56q-61 -68 -159 -68zM274 107q42 0 68 24t26 65v25q-33 14 -74 14t-64 -18t-23 -49v-2
q0 -27 18.5 -43t48.5 -16zM297 591q-52 0 -92.5 38t-40.5 89v2q0 51 40.5 88.5t92.5 37.5t92.5 -37.5t40.5 -88.5v-2q0 -51 -40.5 -89t-92.5 -38zM297 652q28 0 47.5 19.5t19.5 46.5v2q0 26 -19.5 45.5t-47.5 19.5t-47.5 -19.5t-19.5 -45.5v-2q0 -27 19.5 -46.5t47.5 -19.5z
" />
    <glyph glyph-name="ae" unicode="&#xe6;" horiz-adv-x="940" 
d="M225 -12q-87 0 -144 43.5t-57 123.5v2q0 82 57 126t155 44q71 0 130 -21v9q0 88 -108 88q-73 0 -149 -30l-39 134q102 42 219 42q122 0 183 -61q68 65 169 65q130 0 199.5 -84.5t69.5 -211.5q0 -13 -2 -39h-362q24 -89 117 -89q65 0 120 55l105 -87q-85 -110 -234 -110
q-131 0 -212 81q-107 -80 -217 -80zM544 315h188q-5 45 -30.5 71.5t-64.5 26.5q-38 0 -62 -26t-31 -72zM277 109q53 0 109 44q-15 35 -19 68q-33 14 -73 14q-41 0 -64 -18t-23 -49v-2q0 -26 19.5 -41.5t50.5 -15.5z" />
    <glyph glyph-name="ccedilla" unicode="&#xe7;" horiz-adv-x="569" 
d="M292 -173l-151 64l81 110q-87 28 -140 101t-53 166v2q0 117 82 199.5t208 82.5q153 0 231 -121l-129 -96q-43 57 -101 57q-45 0 -75.5 -35t-30.5 -85v-2q0 -52 30.5 -87.5t77.5 -35.5q32 0 55.5 13.5t48.5 42.5l127 -92q-74 -110 -204 -122z" />
    <glyph glyph-name="egrave" unicode="&#xe8;" horiz-adv-x="605" 
d="M319 -13q-128 0 -209 78t-81 203v2q0 120 77 201.5t196 81.5q133 0 203 -84t70 -212v-19q0 -13 -1 -20h-362q22 -89 117 -89q65 0 120 55l105 -87q-85 -110 -235 -110zM209 315h188q-5 45 -30 71.5t-64 26.5q-37 0 -61.5 -26t-32.5 -72zM244 589l-147 128l177 57
l104 -185h-134z" />
    <glyph glyph-name="eacute" unicode="&#xe9;" horiz-adv-x="605" 
d="M319 -13q-128 0 -209 78t-81 203v2q0 120 77 201.5t196 81.5q133 0 203 -84t70 -212v-19q0 -13 -1 -20h-362q22 -89 117 -89q65 0 120 55l105 -87q-85 -110 -235 -110zM209 315h188q-5 45 -30 71.5t-64 26.5q-37 0 -61.5 -26t-32.5 -72zM228 589l104 185l177 -57
l-147 -128h-134z" />
    <glyph glyph-name="ecircumflex" unicode="&#xea;" horiz-adv-x="605" 
d="M319 -13q-128 0 -209 78t-81 203v2q0 120 77 201.5t196 81.5q133 0 203 -84t70 -212v-19q0 -13 -1 -20h-362q22 -89 117 -89q65 0 120 55l105 -87q-85 -110 -235 -110zM209 315h188q-5 45 -30 71.5t-64 26.5q-37 0 -61.5 -26t-32.5 -72zM98 585l128 165h154l128 -165
h-122l-84 61l-84 -61h-120z" />
    <glyph glyph-name="edieresis" unicode="&#xeb;" horiz-adv-x="605" 
d="M319 -13q-128 0 -209 78t-81 203v2q0 120 77 201.5t196 81.5q133 0 203 -84t70 -212v-19q0 -13 -1 -20h-362q22 -89 117 -89q65 0 120 55l105 -87q-85 -110 -235 -110zM209 315h188q-5 45 -30 71.5t-64 26.5q-37 0 -61.5 -26t-32.5 -72zM330 587v143h165v-143h-165z
M111 587v143h165v-143h-165z" />
    <glyph glyph-name="igrave" unicode="&#xec;" horiz-adv-x="300" 
d="M55 0v541h190v-541h-190zM96 587l-148 128l178 57l104 -185h-134z" />
    <glyph glyph-name="iacute" unicode="&#xed;" horiz-adv-x="300" 
d="M55 0v541h190v-541h-190zM73 587l104 185l177 -57l-147 -128h-134z" />
    <glyph glyph-name="icircumflex" unicode="&#xee;" horiz-adv-x="300" 
d="M55 0v541h190v-541h-190zM-54 587l128 165h154l128 -165h-122l-84 61l-84 -61h-120z" />
    <glyph glyph-name="idieresis" unicode="&#xef;" horiz-adv-x="300" 
d="M55 0v541h190v-541h-190zM178 587v143h165v-143h-165zM-41 587v143h165v-143h-165z" />
    <glyph glyph-name="eth" unicode="&#xf0;" horiz-adv-x="656" 
d="M321 -13q-126 0 -207.5 75t-81.5 187v2q0 96 66 161t172 65q64 0 108 -27l-80 107l-115 -44l-65 89l117 40l-64 88h202l21 -30l99 37l64 -89l-103 -35l64 -90q54 -78 75.5 -135t21.5 -127v-2q0 -116 -81 -194t-213 -78zM325 146q49 0 78 29t29 73v2q0 43 -30.5 72.5
t-78.5 29.5q-50 0 -79 -29t-29 -72v-2q0 -43 31 -73t79 -30z" />
    <glyph glyph-name="ntilde" unicode="&#xf1;" horiz-adv-x="634" 
d="M51 0v541h190v-76q68 88 162 88q87 0 135.5 -53t48.5 -146v-354h-190v293q0 44 -20.5 67.5t-55.5 23.5q-36 0 -58 -23.5t-22 -67.5v-293h-190zM202 580l-91 25q16 77 45 113t79 36q34 0 88.5 -19.5t67.5 -19.5q20 0 30 10.5t21 35.5l91 -25q-16 -77 -45 -113t-79 -36
q-33 0 -88 19.5t-68 19.5q-20 0 -30 -10.5t-21 -35.5z" />
    <glyph glyph-name="ograve" unicode="&#xf2;" horiz-adv-x="656" 
d="M327 -13q-128 0 -213 82t-85 199v2q0 118 86 200.5t214 82.5t213 -81.5t85 -199.5v-2q0 -118 -86 -200.5t-214 -82.5zM329 148q50 0 81.5 35t31.5 85v2q0 50 -33 86t-82 36q-50 0 -81.5 -35t-31.5 -85v-2q0 -50 33 -86t82 -36zM267 589l-147 128l177 57l104 -185h-134z
" />
    <glyph glyph-name="oacute" unicode="&#xf3;" horiz-adv-x="656" 
d="M327 -13q-128 0 -213 82t-85 199v2q0 118 86 200.5t214 82.5t213 -81.5t85 -199.5v-2q0 -118 -86 -200.5t-214 -82.5zM329 148q50 0 81.5 35t31.5 85v2q0 50 -33 86t-82 36q-50 0 -81.5 -35t-31.5 -85v-2q0 -50 33 -86t82 -36zM255 589l104 185l177 -57l-147 -128h-134z
" />
    <glyph glyph-name="ocircumflex" unicode="&#xf4;" horiz-adv-x="656" 
d="M327 -13q-128 0 -213 82t-85 199v2q0 118 86 200.5t214 82.5t213 -81.5t85 -199.5v-2q0 -118 -86 -200.5t-214 -82.5zM329 148q50 0 81.5 35t31.5 85v2q0 50 -33 86t-82 36q-50 0 -81.5 -35t-31.5 -85v-2q0 -50 33 -86t82 -36zM123 585l128 165h154l128 -165h-122l-84 61
l-84 -61h-120z" />
    <glyph glyph-name="otilde" unicode="&#xf5;" horiz-adv-x="656" 
d="M327 -13q-128 0 -213 82t-85 199v2q0 118 86 200.5t214 82.5t213 -81.5t85 -199.5v-2q0 -118 -86 -200.5t-214 -82.5zM329 148q50 0 81.5 35t31.5 85v2q0 50 -33 86t-82 36q-50 0 -81.5 -35t-31.5 -85v-2q0 -50 33 -86t82 -36zM208 580l-91 25q16 77 45 113t79 36
q34 0 88.5 -19.5t67.5 -19.5q20 0 30 10.5t21 35.5l91 -25q-16 -77 -45 -113t-79 -36q-34 0 -88.5 19.5t-67.5 19.5q-20 0 -30 -10.5t-21 -35.5z" />
    <glyph glyph-name="odieresis" unicode="&#xf6;" horiz-adv-x="656" 
d="M327 -13q-128 0 -213 82t-85 199v2q0 118 86 200.5t214 82.5t213 -81.5t85 -199.5v-2q0 -118 -86 -200.5t-214 -82.5zM329 148q50 0 81.5 35t31.5 85v2q0 50 -33 86t-82 36q-50 0 -81.5 -35t-31.5 -85v-2q0 -50 33 -86t82 -36zM355 587v143h165v-143h-165zM136 587v143
h165v-143h-165z" />
    <glyph glyph-name="oslash" unicode="&#xf8;" horiz-adv-x="656" 
d="M327 -13q-82 0 -152 38l-28 -30h-133l83 92q-68 77 -68 181v2q0 118 86 200.5t214 82.5q83 0 151 -38l29 31h133l-34 -37q-11 -12 -28.5 -32t-20.5 -23q68 -77 68 -182v-2q0 -118 -86 -200.5t-214 -82.5zM216 218l156 173q-20 9 -45 9q-53 0 -87 -37.5t-34 -90.5v-2
q0 -29 10 -52zM329 140q53 0 87 37.5t34 90.5v2q0 29 -10 52l-155 -174q22 -8 44 -8z" />
    <glyph glyph-name="ugrave" unicode="&#xf9;" horiz-adv-x="634" 
d="M231 -12q-87 0 -135.5 53t-48.5 146v354h190v-293q0 -44 20.5 -67.5t56.5 -23.5q35 0 57 23.5t22 67.5v293h190v-541h-190v74q-67 -86 -162 -86zM272 587l-147 128l177 57l104 -185h-134z" />
    <glyph glyph-name="uacute" unicode="&#xfa;" horiz-adv-x="634" 
d="M231 -12q-87 0 -135.5 53t-48.5 146v354h190v-293q0 -44 20.5 -67.5t56.5 -23.5q35 0 57 23.5t22 67.5v293h190v-541h-190v74q-67 -86 -162 -86zM228 587l104 185l177 -57l-147 -128h-134z" />
    <glyph glyph-name="ucircumflex" unicode="&#xfb;" horiz-adv-x="634" 
d="M231 -12q-87 0 -135.5 53t-48.5 146v354h190v-293q0 -44 20.5 -67.5t56.5 -23.5q35 0 57 23.5t22 67.5v293h190v-541h-190v74q-67 -86 -162 -86zM112 587l128 165h154l128 -165h-122l-84 61l-84 -61h-120z" />
    <glyph glyph-name="udieresis" unicode="&#xfc;" horiz-adv-x="634" 
d="M231 -12q-87 0 -135.5 53t-48.5 146v354h190v-293q0 -44 20.5 -67.5t56.5 -23.5q35 0 57 23.5t22 67.5v293h190v-541h-190v74q-67 -86 -162 -86zM344 587v143h165v-143h-165zM125 587v143h165v-143h-165z" />
    <glyph glyph-name="yacute" unicode="&#xfd;" horiz-adv-x="626" 
d="M211 -163q-88 0 -174 47l59 133q47 -29 83 -29q28 0 44 22l-212 531h199l108 -326l102 326h195l-198 -528q-37 -97 -81.5 -136.5t-124.5 -39.5zM226 587l104 185l177 -57l-147 -128h-134z" />
    <glyph glyph-name="thorn" unicode="&#xfe;" horiz-adv-x="676" 
d="M51 -160v890h190v-261q69 84 164 84q100 0 170 -77t70 -203v-2q0 -128 -69.5 -205.5t-169.5 -77.5q-98 0 -165 78v-226h-190zM347 147q48 0 79.5 34.5t31.5 88.5v2q0 54 -31.5 88t-79.5 34q-46 0 -78 -34.5t-32 -87.5v-2q0 -53 32 -88t78 -35z" />
    <glyph glyph-name="ydieresis" unicode="&#xff;" horiz-adv-x="626" 
d="M211 -163q-88 0 -174 47l59 133q47 -29 83 -29q28 0 44 22l-212 531h199l108 -326l102 326h195l-198 -528q-37 -97 -81.5 -136.5t-124.5 -39.5zM339 587v143h165v-143h-165zM120 587v143h165v-143h-165z" />
    <glyph glyph-name="dotlessi" unicode="&#x131;" horiz-adv-x="300" 
d="M55 0v541h190v-541h-190z" />
    <glyph glyph-name="Lslash" unicode="&#x141;" horiz-adv-x="659" 
d="M107 0v245l-76 -22v173l76 22v282h193v-224l177 52v-174l-177 -52v-132h338v-170h-531z" />
    <glyph glyph-name="lslash" unicode="&#x142;" horiz-adv-x="401" 
d="M106 0v264l-82 -24v170l82 24v296h189v-242l82 24v-171l-82 -24v-317h-189z" />
    <glyph glyph-name="OE" unicode="&#x152;" horiz-adv-x="1078" 
d="M1040 0h-607q-184 0 -289.5 95.5t-105.5 250.5v2q0 156 107 254t292 98h598v-165h-349v-106h314v-153h-314v-111h354v-165zM428 169h66v362h-66q-87 0 -139 -48t-52 -132v-2q0 -83 52 -131.5t139 -48.5z" />
    <glyph glyph-name="oe" unicode="&#x153;" horiz-adv-x="1013" 
d="M320 -13q-122 0 -206.5 82.5t-84.5 198.5v2q0 117 85.5 200t209.5 83t200 -81q75 81 189 81q131 0 200.5 -84.5t69.5 -211.5q0 -13 -2 -39h-361q22 -89 116 -89q66 0 121 55l105 -87q-87 -110 -232 -110q-130 0 -208 81q-78 -81 -202 -81zM617 315h188q-5 45 -30 71.5
t-64 26.5q-37 0 -61.5 -26t-32.5 -72zM326 148q50 0 80.5 35t30.5 85v2q0 50 -32 86t-81 36t-79.5 -35t-30.5 -85v-2q0 -50 32.5 -86t79.5 -36z" />
    <glyph glyph-name="Scaron" unicode="&#x160;" horiz-adv-x="652" 
d="M337 -12q-197 0 -328 116l108 129q105 -84 227 -84q80 0 80 48v2q0 22 -24.5 37t-93.5 30q-51 12 -85 22.5t-71 28t-58.5 39.5t-35.5 55t-14 75v2q0 100 73.5 162t197.5 62q172 0 288 -93l-97 -137q-98 69 -196 69q-34 0 -52 -12.5t-18 -32.5v-2q0 -24 25 -38t96 -30
q131 -29 196 -77t65 -141v-2q0 -106 -77 -167t-206 -61zM243 747l-128 165h122l84 -61l84 61h120l-128 -165h-154z" />
    <glyph glyph-name="scaron" unicode="&#x161;" horiz-adv-x="514" 
d="M266 -12q-145 0 -256 80l71 115q95 -62 186 -62q48 0 48 29v2q0 14 -19 23t-68 23q-46 12 -76 24t-59 32t-43 49t-14 68v2q0 84 60.5 131.5t156.5 47.5q124 0 223 -63l-65 -120q-90 50 -160 50q-44 0 -44 -26v-2q0 -14 19 -23.5t69 -24.5q94 -25 143 -62.5t49 -109.5v-2
q0 -87 -60 -134t-161 -47zM182 587l-128 165h122l84 -61l84 61h120l-128 -165h-154z" />
    <glyph glyph-name="Ydieresis" unicode="&#x178;" horiz-adv-x="723" 
d="M264 0v262l-266 438h221l144 -255l145 255h217l-266 -435v-265h-195zM389 747v143h165v-143h-165zM170 747v143h165v-143h-165z" />
    <glyph glyph-name="Zcaron" unicode="&#x17d;" horiz-adv-x="698" 
d="M40 0v141l351 395h-339v164h607v-141l-351 -395h351v-164h-619zM277 747l-128 165h122l84 -61l84 61h120l-128 -165h-154z" />
    <glyph glyph-name="zcaron" unicode="&#x17e;" horiz-adv-x="563" 
d="M32 0v125l250 265h-241v151h493v-125l-251 -265h251v-151h-502zM207 587l-128 165h122l84 -61l84 61h120l-128 -165h-154z" />
    <glyph glyph-name="florin" unicode="&#x192;" horiz-adv-x="553" 
d="M111 -10q-42 0 -86 10v138q29 -6 47 -6q32 0 47 14.5t22 50.5l23 132h-61v144h86l13 65q16 88 69 130t149 42q64 0 110 -13v-140q-36 9 -67 9q-35 0 -53.5 -14.5t-24.5 -48.5l-5 -30h114v-144h-140l-28 -157q-18 -100 -67 -141t-148 -41z" />
    <glyph glyph-name="circumflex" unicode="&#x2c6;" 
d="M45 587l128 165h154l128 -165h-122l-84 61l-84 -61h-120z" />
    <glyph glyph-name="caron" unicode="&#x2c7;" 
d="M173 587l-128 165h122l84 -61l84 61h120l-128 -165h-154z" />
    <glyph glyph-name="breve" unicode="&#x2d8;" 
d="M250 585q-85 0 -137.5 44t-59.5 123h111q20 -58 86 -58t86 58h111q-7 -79 -59.5 -123t-137.5 -44z" />
    <glyph glyph-name="dotaccent" unicode="&#x2d9;" 
d="M165 587v143h170v-143h-170z" />
    <glyph glyph-name="ring" unicode="&#x2da;" 
d="M250 591q-52 0 -92.5 38t-40.5 89v2q0 51 40.5 88.5t92.5 37.5t92.5 -37.5t40.5 -88.5v-2q0 -51 -40.5 -89t-92.5 -38zM250 652q28 0 47.5 19.5t19.5 46.5v2q0 26 -19.5 45.5t-47.5 19.5t-47.5 -19.5t-19.5 -45.5v-2q0 -27 19.5 -46.5t47.5 -19.5z" />
    <glyph glyph-name="ogonek" unicode="&#x2db;" 
d="M381 -82v-82q-108 -11 -165.5 17t-57.5 89q0 34 19 68h122q-5 -20 -5 -34q0 -57 87 -58z" />
    <glyph glyph-name="tilde" unicode="&#x2dc;" 
d="M130 580l-91 25q16 77 45 113t79 36q34 0 88.5 -19.5t67.5 -19.5q20 0 30 10.5t21 35.5l91 -25q-16 -77 -45 -113t-79 -36q-33 0 -88 19.5t-68 19.5q-20 0 -30 -10.5t-21 -35.5z" />
    <glyph glyph-name="hungarumlaut" unicode="&#x2dd;" 
d="M30 588l99 184l156 -54l30 54l166 -57l-143 -127h-123l59 108l-120 -108h-124z" />
    <glyph glyph-name="uni037E" unicode="&#x37e;" horiz-adv-x="294" 
d="M48 346v195h198v-195h-198zM40 -167l-15 73q52 6 76.5 29.5t23.5 64.5h-77v195h198v-159q0 -106 -53 -153.5t-153 -49.5z" />
    <glyph glyph-name="tonos" unicode="&#x384;" 
d="M128 589l104 185l176 -57l-146 -128h-134z" />
    <glyph glyph-name="dieresistonos" unicode="&#x385;" horiz-adv-x="570" 
d="M405 589v128h144v-128h-144zM20 589v128h145v-128h-145zM197 589l57 213l141 -44l-83 -169h-115z" />
    <glyph glyph-name="Alphatonos" unicode="&#x386;" horiz-adv-x="795" 
d="M6 0l298 705h187l297 -705h-207l-51 125h-270l-50 -125h-204zM317 276h157l-79 199zM-87 543l104 185l176 -57l-146 -128h-134z" />
    <glyph glyph-name="anoteleia" unicode="&#x387;" horiz-adv-x="284" 
d="M43 215v195h198v-195h-198z" />
    <glyph glyph-name="Epsilontonos" unicode="&#x388;" horiz-adv-x="667" 
d="M-272 543l104 185l176 -57l-146 -128h-134zM62 0v700h562v-165h-371v-106h336v-153h-336v-112h376v-164h-567z" />
    <glyph glyph-name="Etatonos" unicode="&#x389;" horiz-adv-x="761" 
d="M62 0v700h194v-262h249v262h194v-700h-194v266h-249v-266h-194zM-272 543l104 185l176 -57l-146 -128h-134z" />
    <glyph glyph-name="Iotatonos" unicode="&#x38a;" horiz-adv-x="327" 
d="M66 0v700h194v-700h-194zM-272 543l104 185l176 -57l-146 -128h-134z" />
    <glyph glyph-name="Omicrontonos" unicode="&#x38c;" horiz-adv-x="831" 
d="M-187 544l104 185l176 -57l-146 -128h-134zM414 -14q-161 0 -268.5 105t-107.5 257v2q0 152 108.5 257.5t269.5 105.5t268.5 -104.5t107.5 -256.5v-2q0 -152 -108.5 -258t-269.5 -106zM416 161q78 0 128 54.5t50 132.5v2q0 78 -51 133.5t-129 55.5t-127.5 -54.5
t-49.5 -132.5v-2q0 -78 50.5 -133.5t128.5 -55.5z" />
    <glyph glyph-name="Upsilontonos" unicode="&#x38e;" horiz-adv-x="723" 
d="M-302 543l104 185l176 -57l-146 -128h-134zM264 0v262l-266 438h221l143 -256l146 256h217l-267 -435v-265h-194z" />
    <glyph glyph-name="Omegatonos" unicode="&#x38f;" horiz-adv-x="829" 
d="M-187 543l104 185l176 -57l-146 -128h-134zM40 385q0 152 102 240t272 88t272 -88t102 -240q0 -67 -29.5 -127t-83.5 -94h109v-164h-323v169q66 23 100 76.5t34 121.5q0 73 -47.5 122.5t-133.5 49.5t-133 -49.5t-47 -122.5q0 -67 34 -121.5t101 -76.5v-169h-323v164h107
q-54 34 -83.5 94t-29.5 127z" />
    <glyph glyph-name="iotadieresistonos" unicode="&#x390;" horiz-adv-x="300" 
d="M55 0v541h190v-541h-190zM292 589v128h144v-128h-144zM-93 589v128h145v-128h-145zM84 589l57 213l141 -44l-83 -169h-115z" />
    <glyph glyph-name="Alpha" unicode="&#x391;" horiz-adv-x="795" 
d="M6 0l298 705h187l297 -705h-207l-51 125h-270l-50 -125h-204zM317 276h157l-79 199z" />
    <glyph glyph-name="Beta" unicode="&#x392;" horiz-adv-x="715" 
d="M62 0v700h358q130 0 191 -63q46 -44 46 -114v-2q0 -108 -109 -155q69 -23 104.5 -63t35.5 -108v-2q0 -90 -70 -141.5t-196 -51.5h-360zM251 421h122q92 0 92 61v2q0 60 -88 60h-126v-123zM251 156h150q93 0 93 63v2q0 64 -95 64h-148v-129z" />
    <glyph glyph-name="Gamma" unicode="&#x393;" horiz-adv-x="618" 
d="M62 0v700h533v-171h-339v-529h-194z" />
    <glyph glyph-name="uni0394" unicode="&#x394;" horiz-adv-x="785" 
d="M505 164l-115 307l-115 -307h230zM8 0l291 705h187l290 -705h-768z" />
    <glyph glyph-name="Epsilon" unicode="&#x395;" horiz-adv-x="667" 
d="M62 0v700h562v-165h-371v-106h336v-153h-336v-112h376v-164h-567z" />
    <glyph glyph-name="Zeta" unicode="&#x396;" horiz-adv-x="698" 
d="M40 0v140l351 396h-339v164h606v-141l-351 -396h351v-163h-618z" />
    <glyph glyph-name="Eta" unicode="&#x397;" horiz-adv-x="761" 
d="M62 0v700h194v-262h249v262h194v-700h-194v266h-249v-266h-194z" />
    <glyph glyph-name="Theta" unicode="&#x398;" horiz-adv-x="831" 
d="M792 350q0 -152 -108.5 -258t-269.5 -106t-268.5 105t-107.5 257v2q0 152 108.5 257.5t269.5 105.5t268.5 -104.5t107.5 -256.5v-2zM594 348v2q0 78 -51 133.5t-129 55.5t-127.5 -54.5t-49.5 -132.5v-2q0 -78 50.5 -133.5t128.5 -55.5t128 54.5t50 132.5zM523 275h-215
v154h215v-154z" />
    <glyph glyph-name="Iota" unicode="&#x399;" horiz-adv-x="327" 
d="M66 0v700h194v-700h-194z" />
    <glyph glyph-name="Kappa" unicode="&#x39a;" horiz-adv-x="730" 
d="M62 0v700h194v-284l241 284h229l-264 -301l273 -399h-232l-177 260l-70 -79v-181h-194z" />
    <glyph glyph-name="Lambda" unicode="&#x39b;" horiz-adv-x="774" 
d="M385 463l-170 -463h-202l280 705h187l280 -705h-206z" />
    <glyph glyph-name="Mu" unicode="&#x39c;" horiz-adv-x="868" 
d="M62 0v700h205l167 -271l167 271h205v-700h-193v402l-179 -274h-4l-178 272v-400h-190z" />
    <glyph glyph-name="Nu" unicode="&#x39d;" horiz-adv-x="785" 
d="M62 0v700h180l289 -370v370h192v-700h-170l-299 384v-384h-192z" />
    <glyph glyph-name="Xi" unicode="&#x39e;" horiz-adv-x="708" 
d="M54 525v175h616v-175h-616zM94 273v159h541v-159h-541zM49 0v175h626v-175h-626z" />
    <glyph glyph-name="Omicron" unicode="&#x39f;" horiz-adv-x="831" 
d="M414 -14q-161 0 -268.5 105t-107.5 257v2q0 152 108.5 257.5t269.5 105.5t268.5 -104.5t107.5 -256.5v-2q0 -152 -108.5 -258t-269.5 -106zM416 161q78 0 128 54.5t50 132.5v2q0 78 -51 133.5t-129 55.5t-127.5 -54.5t-49.5 -132.5v-2q0 -78 50.5 -133.5t128.5 -55.5z
" />
    <glyph glyph-name="Pi" unicode="&#x3a0;" horiz-adv-x="750" 
d="M62 0v700h626v-700h-194v528h-238v-528h-194z" />
    <glyph glyph-name="Rho" unicode="&#x3a1;" horiz-adv-x="673" 
d="M62 0v700h300q134 0 212.5 -65.5t78.5 -180.5v-2q0 -120 -83.5 -186t-217.5 -66h-96v-200h-194zM256 352h92q51 0 81 24.5t30 66.5v2q0 45 -29.5 68.5t-82.5 23.5h-91v-185z" />
    <glyph glyph-name="Sigma" unicode="&#x3a3;" horiz-adv-x="690" 
d="M40 140l205 217l-191 202v141h593v-164h-315l165 -175l-185 -197h344v-164h-616v140z" />
    <glyph glyph-name="Tau" unicode="&#x3a4;" horiz-adv-x="660" 
d="M233 0v530h-210v170h613v-170h-209v-530h-194z" />
    <glyph glyph-name="Upsilon" unicode="&#x3a5;" horiz-adv-x="723" 
d="M264 0v262l-266 438h221l143 -256l146 256h217l-267 -435v-265h-194z" />
    <glyph glyph-name="Phi" unicode="&#x3a6;" horiz-adv-x="915" 
d="M879 353q0 -135 -91.5 -211.5t-237.5 -87.5v-64h-186v64q-147 10 -238.5 86t-91.5 212v2q0 134 92.5 213t237.5 91v52h186v-52q145 -11 237 -89.5t92 -213.5v-2zM690 353v2q0 55 -35.5 97.5t-104.5 50.5v-294q69 8 104.5 48.5t35.5 95.5zM364 210v294
q-70 -8 -105.5 -50.5t-35.5 -97.5v-2q0 -55 35.5 -95.5t105.5 -48.5z" />
    <glyph glyph-name="Chi" unicode="&#x3a7;" horiz-adv-x="732" 
d="M11 0l240 356l-230 344h223l124 -197l125 197h218l-231 -342l241 -358h-223l-134 211l-135 -211h-218z" />
    <glyph glyph-name="Psi" unicode="&#x3a8;" horiz-adv-x="877" 
d="M345 0v125q-141 5 -219.5 79.5t-78.5 220.5v275h187v-261q0 -143 111 -156v417h186v-417q57 6 84 44t27 115v258h187v-275q0 -144 -79.5 -219.5t-218.5 -81.5v-124h-186z" />
    <glyph glyph-name="uni03A9" unicode="&#x3a9;" horiz-adv-x="829" 
d="M40 385q0 152 102 240t272 88t272 -88t102 -240q0 -67 -29.5 -127t-83.5 -94h109v-164h-323v169q66 23 100 76.5t34 121.5q0 73 -47.5 122.5t-133.5 49.5t-133 -49.5t-47 -122.5q0 -67 34 -121.5t101 -76.5v-169h-323v164h107q-54 34 -83.5 94t-29.5 127z" />
    <glyph glyph-name="Iotadieresis" unicode="&#x3aa;" horiz-adv-x="327" 
d="M66 0v700h194v-700h-194zM190 745v143h165v-143h-165zM-29 745v143h165v-143h-165z" />
    <glyph glyph-name="Upsilondieresis" unicode="&#x3ab;" horiz-adv-x="723" 
d="M264 0v262l-266 438h221l143 -256l146 256h217l-267 -435v-265h-194zM388 745v143h165v-143h-165zM169 745v143h165v-143h-165z" />
    <glyph glyph-name="alphatonos" unicode="&#x3ac;" horiz-adv-x="675" 
d="M435 0v72q-69 -84 -165 -84q-100 0 -169.5 77t-69.5 203v2q0 128 69 205t169 77q98 0 166 -77v66h189v-541h-189zM328 146q46 0 78 35t32 88v2q0 53 -32 88t-78 35q-47 0 -79 -34.5t-32 -88.5v-2q0 -53 32 -88t79 -35zM263 589l104 185l176 -57l-146 -128h-134z" />
    <glyph glyph-name="epsilontonos" unicode="&#x3ad;" horiz-adv-x="578" 
d="M233 589l104 185l176 -57l-146 -128h-134zM466 194l103 -102q-57 -54 -120 -79.5t-160 -25.5q-258 0 -258 164q0 45 30 81.5t80 50.5v1q-87 32 -87 113q0 75 68.5 115t171.5 40q155 0 252 -85l-95 -107q-64 51 -142 51q-75 0 -75 -44q0 -42 56 -42h118v-98h-121
q-72 0 -72 -46q0 -49 91 -49q92 0 160 62z" />
    <glyph glyph-name="etatonos" unicode="&#x3ae;" horiz-adv-x="634" 
d="M51 0v541h189v-76q68 87 162 87q86 0 135.5 -53.5t49.5 -145.5v-353h-190v293q0 43 -21 67t-56 24q-36 0 -58 -24t-22 -67v-293h-189zM249 589l104 185l176 -57l-146 -128h-134z" />
    <glyph glyph-name="iotatonos" unicode="&#x3af;" horiz-adv-x="300" 
d="M55 0v541h190v-541h-190zM73 589l104 185l176 -57l-146 -128h-134z" />
    <glyph glyph-name="upsilondieresistonos" unicode="&#x3b0;" horiz-adv-x="621" 
d="M309 -12q-131 0 -197 63.5t-66 175.5v314h189v-293q0 -101 74 -101q76 0 76 101v293h190v-313q0 -111 -67 -175.5t-199 -64.5zM432 589v128h144v-128h-144zM47 589v128h145v-128h-145zM224 589l57 213l141 -44l-83 -169h-115z" />
    <glyph glyph-name="alpha" unicode="&#x3b1;" horiz-adv-x="675" 
d="M435 0v72q-69 -84 -165 -84q-100 0 -169.5 77t-69.5 203v2q0 128 69 205t169 77q98 0 166 -77v66h189v-541h-189zM328 146q46 0 78 35t32 88v2q0 53 -32 88t-78 35q-47 0 -79 -34.5t-32 -88.5v-2q0 -53 32 -88t79 -35z" />
    <glyph glyph-name="beta" unicode="&#x3b2;" horiz-adv-x="673" 
d="M583 551q0 -43 -22.5 -79t-66.5 -54q69 -17 109.5 -69t40.5 -124q0 -107 -64 -171.5t-179 -64.5q-106 0 -161 78v-227h-189v638q0 117 69.5 188t205.5 71q67 0 123 -18t95 -61.5t39 -106.5zM300 469h40q29 0 47.5 16.5t18.5 48.5q0 31 -22.5 46.5t-58.5 15.5
q-51 0 -68.5 -34t-17.5 -94v-205q0 -34 13 -59t32.5 -36.5t35.5 -16.5t29 -5q48 0 79 23.5t31 68.5q0 39 -28 66t-79 27h-52v138z" />
    <glyph glyph-name="gamma" unicode="&#x3b3;" horiz-adv-x="625" 
d="M217 17l-207 524h199l104 -328l105 328h197l-209 -527v-174h-189v177z" />
    <glyph glyph-name="delta" unicode="&#x3b4;" horiz-adv-x="651" 
d="M326 147q52 0 82 30.5t30 72.5t-31.5 73t-82.5 31q-53 0 -82.5 -30t-29.5 -73q0 -42 31.5 -73t82.5 -31zM254 483l-161 125v122h450v-136h-189l158 -130q110 -92 110 -212q0 -110 -81.5 -187.5t-218.5 -77.5q-133 0 -213 74.5t-80 184.5q0 87 56.5 155.5t163.5 81.5h5z
" />
    <glyph glyph-name="epsilon" unicode="&#x3b5;" horiz-adv-x="578" 
d="M466 194l103 -102q-57 -54 -120 -79.5t-160 -25.5q-258 0 -258 164q0 45 30 81.5t80 50.5v1q-87 32 -87 113q0 75 68.5 115t171.5 40q155 0 252 -85l-95 -107q-64 51 -142 51q-75 0 -75 -44q0 -42 56 -42h118v-98h-121q-72 0 -72 -46q0 -49 91 -49q92 0 160 62z" />
    <glyph glyph-name="zeta" unicode="&#x3b6;" horiz-adv-x="539" 
d="M318 579h-244v151h466v-131q-325 -237 -325 -377q0 -37 29 -54.5t103 -25.5q97 -9 141.5 -40.5t44.5 -98.5q0 -61 -28 -163h-145q19 59 19 101q0 25 -21.5 36.5t-66.5 15.5q-143 15 -203.5 57.5t-60.5 139.5q0 90 75 194t216 195z" />
    <glyph glyph-name="eta" unicode="&#x3b7;" horiz-adv-x="634" 
d="M51 0v541h189v-76q68 87 162 87q86 0 135.5 -53.5t49.5 -145.5v-353h-190v293q0 43 -21 67t-56 24q-36 0 -58 -24t-22 -67v-293h-189z" />
    <glyph glyph-name="theta" unicode="&#x3b8;" horiz-adv-x="642" 
d="M605 362q0 -163 -73.5 -268.5t-211.5 -105.5q-137 0 -210 104.5t-73 267.5q0 164 73 270.5t211 106.5q139 0 211.5 -106t72.5 -269zM322 133q47 0 75 44.5t30 123.5h-213q3 -79 32 -123.5t76 -44.5zM320 593q-45 0 -73.5 -42t-30.5 -113h209q-2 71 -31 113t-74 42z" />
    <glyph glyph-name="iota" unicode="&#x3b9;" horiz-adv-x="300" 
d="M55 0v541h190v-541h-190z" />
    <glyph glyph-name="kappa" unicode="&#x3ba;" horiz-adv-x="603" 
d="M51 0v541h189v-182l148 182h214l-187 -217l192 -324h-208l-110 184l-49 -57v-127h-189z" />
    <glyph glyph-name="lambda" unicode="&#x3bb;" horiz-adv-x="600" 
d="M226 541l-4 10q-19 48 -71 48q-42 0 -76 -8v135q53 11 105 11q74 0 116.5 -34.5t75.5 -120.5l224 -582h-203l-90 300l-88 -300h-201z" />
    <glyph glyph-name="uni03BC" unicode="&#x3bc;" horiz-adv-x="638" 
d="M319 -6q-62 0 -79 74v-228h-189v701h189v-289q0 -49 20 -75.5t57 -26.5q36 0 58 24t22 68v299h190v-541h-184v68q-7 -28 -27.5 -51t-56.5 -23z" />
    <glyph glyph-name="nu" unicode="&#x3bd;" horiz-adv-x="625" 
d="M226 -4l-216 545h199l104 -317l105 317h197l-216 -545h-173z" />
    <glyph glyph-name="xi" unicode="&#x3be;" horiz-adv-x="561" 
d="M27 209q0 147 161 190q-106 24 -106 103q0 28 24.5 57.5t85.5 39.5h-130v131h497v-151h-173q-117 0 -117 -58q0 -57 80 -57h157v-150h-176q-118 0 -118 -78q0 -32 27 -52.5t88 -32.5q127 -25 177 -56.5t50 -101.5q0 -59 -28 -153h-145q18 52 18 86q0 17 -7.5 29
t-25.5 19.5t-31 11t-43 9t-41 7.5q-119 24 -171.5 74.5t-52.5 132.5z" />
    <glyph glyph-name="omicron" unicode="&#x3bf;" horiz-adv-x="656" 
d="M327 -13q-128 0 -213 82t-85 199v2q0 117 85.5 199.5t214.5 82.5q128 0 212.5 -81.5t84.5 -198.5v-2q0 -117 -85.5 -200t-213.5 -83zM329 147q50 0 81.5 35t31.5 86v2q0 50 -33 86t-82 36q-51 0 -82.5 -35t-31.5 -85v-2q0 -51 33 -87t83 -36z" />
    <glyph glyph-name="pi" unicode="&#x3c0;" horiz-adv-x="630" 
d="M51 0v541h528v-541h-190v390h-149v-390h-189z" />
    <glyph glyph-name="rho" unicode="&#x3c1;" horiz-adv-x="657" 
d="M331 136q50 0 80.5 34.5t30.5 94.5q0 61 -30.5 95.5t-80.5 34.5q-48 0 -78 -34.5t-30 -95.5q0 -58 29.5 -93.5t78.5 -35.5zM224 48v-208h-189v430q0 124 81.5 203t218.5 79q130 0 211.5 -78t81.5 -201q0 -127 -78.5 -205t-184.5 -78q-92 0 -141 58z" />
    <glyph glyph-name="uni03C2" unicode="&#x3c2;" horiz-adv-x="566" 
d="M465 -160h-145q20 60 20 103q0 10 -6 19t-13 15t-21 12.5t-22.5 9t-25 8t-21.5 6.5q-202 65 -202 262q0 117 81 197t206 80q158 0 232 -121l-128 -96q-42 57 -105 57q-44 0 -72.5 -31.5t-28.5 -77.5q0 -47 25 -77t85 -51q98 -35 134.5 -65t36.5 -95q0 -54 -30 -155z" />
    <glyph glyph-name="sigma" unicode="&#x3c3;" horiz-adv-x="680" 
d="M648 390h-109q37 -17 58.5 -55t21.5 -80q0 -113 -82.5 -190.5t-209.5 -77.5q-128 0 -213 80.5t-85 200.5q0 118 82 195.5t213 77.5h324v-151zM441 270q0 51 -32.5 86.5t-81.5 35.5q-51 0 -82.5 -35t-31.5 -86t32.5 -87.5t83.5 -36.5q50 0 81 35.5t31 87.5z" />
    <glyph glyph-name="tau" unicode="&#x3c4;" horiz-adv-x="512" 
d="M161 0v388h-141v153h471v-153h-140v-388h-190z" />
    <glyph glyph-name="upsilon" unicode="&#x3c5;" horiz-adv-x="621" 
d="M309 -12q-131 0 -197 63.5t-66 175.5v314h189v-293q0 -101 74 -101q76 0 76 101v293h190v-313q0 -111 -67 -175.5t-199 -64.5z" />
    <glyph glyph-name="phi" unicode="&#x3c6;" horiz-adv-x="839" 
d="M810 268q0 -118 -78 -194.5t-224 -85.5v-148h-176v147q-146 6 -224.5 82t-78.5 195q0 107 56.5 177t161.5 100l46 -143q-36 -13 -58.5 -47.5t-22.5 -84.5q0 -53 31 -88.5t89 -42.5v413q64 5 99 5q77 0 141 -13.5t119.5 -44.5t87 -88.5t31.5 -138.5zM627 271
q0 59 -32.5 92t-86.5 39v-267q59 7 89 43t30 93z" />
    <glyph glyph-name="chi" unicode="&#x3c7;" horiz-adv-x="589" 
d="M8 0l182 272l-179 269h204l80 -133l81 133h200l-178 -267l183 -274h-204l-85 139l-84 -139h-200z" />
    <glyph glyph-name="psi" unicode="&#x3c8;" horiz-adv-x="830" 
d="M324 -160v147q-139 3 -209.5 70t-70.5 191v293h184v-269q0 -63 23 -95t73 -37v538h182v-538q50 5 72.5 37t22.5 95v269h185v-293q0 -124 -70.5 -191t-209.5 -70v-147h-182z" />
    <glyph glyph-name="omega" unicode="&#x3c9;" horiz-adv-x="865" 
d="M344 344h176v-115q0 -82 62 -82q69 0 69 112q0 135 -119 136v157q151 -1 227 -83t76 -209q0 -125 -66 -199t-174 -74q-21 0 -42.5 5t-45 16t-43.5 33t-32 53q-20 -57 -67 -82t-96 -25q-108 0 -174 74t-66 199q0 127 76 209t227 83v-157q-33 -1 -57 -12t-35.5 -24.5
t-17.5 -35.5t-7 -34t-1 -30q0 -112 68 -112q62 0 62 82v115z" />
    <glyph glyph-name="iotadieresis" unicode="&#x3ca;" horiz-adv-x="300" 
d="M55 0v541h190v-541h-190zM177 589v141h165v-141h-165zM-42 589v141h165v-141h-165z" />
    <glyph glyph-name="upsilondieresis" unicode="&#x3cb;" horiz-adv-x="621" 
d="M309 -12q-131 0 -197 63.5t-66 175.5v314h189v-293q0 -101 74 -101q76 0 76 101v293h190v-313q0 -111 -67 -175.5t-199 -64.5zM337 587v143h165v-143h-165zM118 587v143h165v-143h-165z" />
    <glyph glyph-name="omicrontonos" unicode="&#x3cc;" horiz-adv-x="656" 
d="M264 589l104 185l176 -57l-146 -128h-134zM327 -13q-128 0 -213 82t-85 199v2q0 117 85.5 199.5t214.5 82.5q128 0 212.5 -81.5t84.5 -198.5v-2q0 -117 -85.5 -200t-213.5 -83zM329 147q50 0 81.5 35t31.5 86v2q0 50 -33 86t-82 36q-51 0 -82.5 -35t-31.5 -85v-2
q0 -51 33 -87t83 -36z" />
    <glyph glyph-name="upsilontonos" unicode="&#x3cd;" horiz-adv-x="621" 
d="M236 589l104 185l176 -57l-146 -128h-134zM309 -12q-131 0 -197 63.5t-66 175.5v314h189v-293q0 -101 74 -101q76 0 76 101v293h190v-313q0 -111 -67 -175.5t-199 -64.5z" />
    <glyph glyph-name="omegatonos" unicode="&#x3ce;" horiz-adv-x="865" 
d="M344 344h176v-115q0 -82 62 -82q69 0 69 112q0 135 -119 136v157q151 -1 227 -83t76 -209q0 -125 -66 -199t-174 -74q-21 0 -42.5 5t-45 16t-43.5 33t-32 53q-20 -57 -67 -82t-96 -25q-108 0 -174 74t-66 199q0 127 76 209t227 83v-157q-33 -1 -57 -12t-35.5 -24.5
t-17.5 -35.5t-7 -34t-1 -30q0 -112 68 -112q62 0 62 82v115zM362 589l104 185l176 -57l-146 -128h-134z" />
    <glyph glyph-name="endash" unicode="&#x2013;" horiz-adv-x="528" 
d="M40 231v163h448v-163h-448z" />
    <glyph glyph-name="emdash" unicode="&#x2014;" horiz-adv-x="898" 
d="M40 231v163h818v-163h-818z" />
    <glyph glyph-name="quoteleft" unicode="&#x2018;" horiz-adv-x="284" 
d="M40 343v159q0 106 53 153.5t152 49.5l16 -73q-51 -6 -76.5 -29.5t-23.5 -64.5h76v-195h-197z" />
    <glyph glyph-name="quoteright" unicode="&#x2019;" horiz-adv-x="284" 
d="M39 338l-16 73q51 5 76.5 29t23.5 65h-76v195h197v-159q0 -106 -52.5 -152.5t-152.5 -50.5z" />
    <glyph glyph-name="quotesinglbase" unicode="&#x201a;" horiz-adv-x="284" 
d="M35 -167l-15 73q52 6 76.5 29.5t23.5 64.5h-77v195h198v-159q0 -106 -53 -153.5t-153 -49.5z" />
    <glyph glyph-name="quotedblleft" unicode="&#x201c;" horiz-adv-x="547" 
d="M305 343v159q0 198 203 203l16 -73q-101 -12 -98 -94h74v-195h-195zM40 343v159q0 198 203 203l15 -73q-51 -6 -75 -29.5t-22 -64.5h74v-195h-195z" />
    <glyph glyph-name="quotedblright" unicode="&#x201d;" horiz-adv-x="547" 
d="M305 338l-16 73q101 11 98 94h-75v195h195v-159q0 -106 -51.5 -152.5t-150.5 -50.5zM39 338l-16 73q101 11 98 94h-74v195h195v-159q0 -106 -51.5 -152.5t-151.5 -50.5z" />
    <glyph glyph-name="quotedblbase" unicode="&#x201e;" horiz-adv-x="546" 
d="M301 -167l-15 73q51 6 75 29.5t22 64.5h-74v195h195v-159q0 -105 -52 -153t-151 -50zM35 -167l-15 73q51 6 75 29.5t22 64.5h-74v195h195v-159q0 -105 -52 -153t-151 -50z" />
    <glyph glyph-name="dagger" unicode="&#x2020;" horiz-adv-x="410" 
d="M155 223l10 270l-125 -13v104l124 -13l-15 129h112l-15 -129l124 13v-104l-125 13l10 -270h-100z" />
    <glyph glyph-name="daggerdbl" unicode="&#x2021;" horiz-adv-x="430" 
d="M159 0l15 129l-124 -13v104l126 -13l-13 143l13 143l-126 -13v104l124 -13l-15 129h112l-15 -129l124 13v-104l-126 13l13 -143l-13 -143l126 13v-104l-124 13l15 -129h-112z" />
    <glyph glyph-name="bullet" unicode="&#x2022;" 
d="M250 183q-69 0 -119 49.5t-50 118.5v2q0 69 50 118.5t119 49.5t119 -49.5t50 -118.5v-2q0 -69 -50 -118.5t-119 -49.5z" />
    <glyph glyph-name="ellipsis" unicode="&#x2026;" horiz-adv-x="840" 
d="M603 0v192h194v-192h-194zM323 0v192h194v-192h-194zM43 0v192h194v-192h-194z" />
    <glyph glyph-name="perthousand" unicode="&#x2030;" horiz-adv-x="1295" 
d="M215 333q-80 0 -130 54t-50 133v2q0 79 50.5 133.5t130.5 54.5q79 0 129.5 -54.5t50.5 -132.5v-2q0 -79 -51 -133.5t-130 -54.5zM112 0l540 700h135l-540 -700h-135zM1079 -10q-79 0 -129.5 54.5t-50.5 132.5v2q0 79 50.5 133.5t130.5 54.5t130 -54t50 -133v-2
q0 -78 -51 -133t-130 -55zM683 -10q-79 0 -129.5 54.5t-50.5 132.5v2q0 79 50.5 133.5t130.5 54.5t130 -54t50 -133v-2q0 -78 -51 -133t-130 -55zM216 443q26 0 42 22t16 55v2q0 33 -16.5 55.5t-42.5 22.5t-42 -22t-16 -55v-2q0 -34 17 -56t42 -22zM1080 100q26 0 42 22
t16 55v2q0 34 -16.5 56t-42.5 22q-27 0 -42.5 -21.5t-15.5 -55.5v-2q0 -33 17 -55.5t42 -22.5zM684 100q26 0 42 22t16 55v2q0 34 -16.5 56t-42.5 22q-27 0 -42.5 -21.5t-15.5 -55.5v-2q0 -33 17 -55.5t42 -22.5z" />
    <glyph glyph-name="guilsinglleft" unicode="&#x2039;" horiz-adv-x="357" 
d="M190 30l-160 214v48l160 214l137 -67l-130 -171l130 -170z" />
    <glyph glyph-name="guilsinglright" unicode="&#x203a;" horiz-adv-x="357" 
d="M167 30l-137 67l130 171l-130 170l137 68l160 -214v-48z" />
    <glyph glyph-name="fraction" unicode="&#x2044;" horiz-adv-x="501" 
d="M-73 -98l466 856h158l-465 -856h-159z" />
    <glyph glyph-name="Euro" unicode="&#x20ac;" horiz-adv-x="682" 
d="M421 -14q-119 0 -197.5 64.5t-105.5 172.5h-81v104h68q-1 3 -1 10v11v2v13q0 9 1 14h-68v104h84q28 103 106.5 168t194.5 65q152 0 240 -113l-123 -115q-49 62 -116 62q-76 0 -109 -70h156v-101h-178q-1 -4 -1 -13v-12v-2v-12q0 -7 1 -11h178v-101h-158q36 -74 115 -74
q64 0 118 66l120 -113q-90 -119 -244 -119z" />
    <glyph glyph-name="uni2117" unicode="&#x2117;" horiz-adv-x="830" 
d="M414 -14q-151 0 -256 107t-105 255v2q0 149 105.5 256.5t257.5 107.5q151 0 256 -107t105 -255v-2q0 -149 -105.5 -256.5t-257.5 -107.5zM414 26q136 0 228.5 95t92.5 229v2q0 134 -92 228t-227 94q-136 0 -228.5 -95t-92.5 -229v-2q0 -134 92 -228t227 -94zM273 164v385
h165q75 0 118 -35.5t43 -100.5v-2q0 -65 -46 -101t-119 -36h-53v-110h-108zM381 358h49q61 0 61 49v2q0 50 -61 50h-49v-101z" />
    <glyph glyph-name="trademark" unicode="&#x2122;" horiz-adv-x="695" 
d="M334 392v308h91l73 -119l74 119h90v-308h-85v180l-78 -122h-3l-78 122v-180h-84zM108 392v233h-92v75h270v-75h-92v-233h-86z" />
    <glyph glyph-name="Omega" unicode="&#x2126;" horiz-adv-x="829" 
d="M40 385q0 152 102 240t272 88t272 -88t102 -240q0 -67 -29.5 -127t-83.5 -94h109v-164h-323v169q66 23 100 76.5t34 121.5q0 73 -47.5 122.5t-133.5 49.5t-133 -49.5t-47 -122.5q0 -67 34 -121.5t101 -76.5v-169h-323v164h107q-54 34 -83.5 94t-29.5 127z" />
    <glyph glyph-name="Delta" unicode="&#x2206;" horiz-adv-x="785" 
d="M505 164l-115 307l-115 -307h230zM8 0l291 705h187l290 -705h-768z" />
    <glyph glyph-name="f_f" unicode="&#xfb00;" horiz-adv-x="808" 
d="M489 0v389h-64v146h64v15q0 94 46 140q46 47 141 47q72 0 124 -15v-134q-36 11 -71 11q-54 0 -54 -51v-13h124v-146h-121v-389h-189zM85 0v389h-63v149h63v12q0 94 46 140q47 47 141 47q72 0 124 -15v-134q-36 11 -71 11q-54 0 -54 -51v-13h124v-146h-121v-389h-189z" />
    <glyph glyph-name="f_f_i" unicode="&#xfb03;" horiz-adv-x="1108" 
d="M859 590v140h198v-140h-198zM489 0v389h-64v146h64v15q0 94 46 140q46 47 141 47q72 0 124 -15v-134q-36 11 -71 11q-54 0 -54 -51v-13h124v-146h-121v-389h-189zM85 0v389h-63v149h63v12q0 94 46 140q47 47 141 47q72 0 124 -15v-134q-36 11 -71 11q-54 0 -54 -51v-13
h124v-146h-121v-389h-189zM863 0v541h190v-541h-190z" />
    <glyph glyph-name="f_f_l" unicode="&#xfb04;" horiz-adv-x="1108" 
d="M489 0v389h-64v146h64v15q0 94 46 140q46 47 141 47q72 0 124 -15v-134q-36 11 -71 11q-54 0 -54 -51v-13h124v-146h-121v-389h-189zM85 0v389h-63v149h63v12q0 94 46 140q47 47 141 47q72 0 124 -15v-134q-36 11 -71 11q-54 0 -54 -51v-13h124v-146h-121v-389h-189z
M863 0v730h190v-730h-190z" />
    <glyph glyph-name="three.salt" horiz-adv-x="618" 
d="M317 -14q-185 0 -301 124l121 119q79 -79 170 -79q44 0 69 18.5t25 48.5v2q0 61 -112 61h-73v146h71q99 0 99 61v2q0 27 -23.5 44t-64.5 17q-71 0 -140 -76l-120 112q52 61 117.5 94.5t159.5 33.5q116 0 187 -52.5t71 -134.5v-2q0 -114 -105 -162q123 -42 123 -157v-2
q0 -96 -74 -157t-200 -61z" />
    <glyph glyph-name="Q.salt" horiz-adv-x="831" 
d="M608 -88l-90 88q-54 -13 -104 -13q-161 0 -268.5 104.5t-107.5 256.5v2q0 152 108.5 258t269.5 106t268.5 -105.5t107.5 -256.5v-2q0 -148 -100 -248l175 -180v-10h-259zM416 161q78 0 128 54.5t50 132.5v2q0 77 -51 133t-129 56t-127.5 -54.5t-49.5 -132.5v-2
q0 -77 50.5 -133t128.5 -56z" />
    <glyph glyph-name="apple" horiz-adv-x="967" 
d="M868 0h-767v750h767v-750zM859 -104h-6l-3 20l-10 -21h-2l-10 21l-3 -20h-6l6 34h1l13 -26l13 26h1zM806 -87q0 -18 -17 -18t-17 17q0 18 18 18q7 0 11.5 -5t4.5 -12zM758 -96l-1 -6q-3 -3 -10 -3q-18 0 -18 17q0 18 18 18q7 0 11 -3l-2 -5q-3 3 -9 3q-12 0 -12 -12
q0 -13 13 -13q5 0 10 4zM702 -71l-13 -19v-14h-6v14l-14 19l6 1l11 -15l9 14h7zM656 -104h-6v15h-16v-15h-6v33h6v-13h16v13h6v-33zM612 -82q0 -12 -17 -12v-10h-6v33q23 4 23 -11zM576 -104h-6l-4 8h-14l-3 -8h-6l15 34h2zM534 -104h-7l-8 11h-5v-11h-6v33q23 4 23 -10
q0 -7 -7 -10zM491 -86v-15q-5 -4 -13 -4q-18 0 -18 17q0 18 19 18q7 0 12 -4l-2 -5q-4 4 -11 4q-12 0 -12 -13q0 -12 13 -12l6 2v7h-9v5h15zM447 -87q0 -18 -17 -18t-17 17q0 18 18 18q7 0 11.5 -5t4.5 -12zM400 -82q0 -12 -17 -12v-10h-6v33q23 4 23 -11zM364 -71l-13 -19
v-14h-6v14l-14 19l6 1l11 -15l9 14h7zM323 -71v-5h-12v-28h-6v28h-12v5h30zM267 -71l-12 -34h-1l-11 23l-10 -23h-1l-12 34l6 1l7 -23l10 23h1l10 -23l7 22h6zM211 -71l-12 -34h-1l-11 23l-10 -23h-1l-12 34l6 1l7 -23l10 23h1l10 -23l7 22h6zM155 -71l-12 -34h-1l-11 23
l-10 -23h-1l-12 34l6 1l7 -23l10 23h1l10 -23l7 22h6zM716 -101q0 -4 -4 -4t-4 4t4 4t4 -4zM284 -101q0 -4 -4 -4t-4 4t4 4t4 -4zM559 686v5q0 6 -1 7q-1 -1 -17 -1t-18 1v-7q0 -4 -1 -5h2l3 5q4 4 7 4t3 -3v-23q0 -3 -2 -5q-1 -2 -3 0v-2h17v2q-1 -1 -2 0q-3 3 -3 5v23
q0 3 3 3q4 0 8 -4q2 -2 2 -5h2zM504 662v2q-2 -2 -3 0q-3 2 -3 5v21q0 4 3 5q1 1 3 0v2h-18v-1v-1q2 1 3 0q2 -2 2 -5v-9h-17v9q0 2 3 5q1 1 2 0v1v1h-17v-2q2 1 3 0q2 -2 2 -5v-21l-2 -4q-1 -1 -3 -1v-2h17v2l-2 1q-3 3 -3 4v10h17v-10q0 -3 -2 -5q-1 -2 -3 0v-2h18z
M439 662v2q-1 -1 -2 0q-3 3 -3 5v21q0 2 3 5q1 1 2 0v2h-29l-2 -10l2 -1l2 4q4 4 7 4h4q4 0 4 -3v-10h-4q-2 0 -5 3l-1 2h-2v-13h2q0 2 1 3q2 3 5 3h4v-11q0 -3 -4 -3h-4q-3 0 -8 5l-2 4l-2 -1l2 -11h30zM827 618v6h-685v-6h685zM696 540q0 15 -11.5 26.5t-25.5 11.5
q-8 0 -15.5 -5.5t-7.5 -16.5q0 -16 11 -27t26 -11q8 0 15.5 5.5t7.5 16.5zM589 537q0 12 -14 17q5 3 5 9q0 15 -21 15q-13 0 -13 -11q0 -6 5 -6q4 0 4 3q0 2 -1.5 3.5t-1.5 2.5q0 5 7 5q10 0 10 -12q0 -4 -2 -6q-16 1 -16 -6q0 -6 8 -6q6 0 11 5q6 -4 6 -15q0 -14 -12 -14
t-12 9q0 3 3 3l1 -1q2 -1 4 -1q4 0 4 5t-7 5q-9 0 -9 -10q0 -13 16 -13q25 0 25 19zM295 537q0 12 -14 17q5 3 5 9q0 15 -21 15q-13 0 -13 -11q0 -6 5 -6q4 0 4 3q0 2 -1.5 3.5t-1.5 2.5q0 5 7 5q10 0 10 -12q0 -4 -2 -6q-16 1 -16 -6q0 -6 8 -6q6 0 11 5q6 -4 6 -15
q0 -14 -12 -14t-12 9q0 3 3 3l1 -1q2 -1 4 -1q4 0 4 5t-7 5q-9 0 -9 -10q0 -13 16 -13q25 0 25 19zM821 519l-1 3q-3 0 -4 1q-4 1 -6 7l-7 35q-2 5 3 7q1 1 4 1l-1 3h-28l1 -3q3 0 4 -1q3 -1 5 -7l3 -15h-24l-3 15q-2 5 3 7q1 1 4 1l-1 3h-29l1 -3q3 0 4 -1q5 -2 6 -7l7 -35
q2 -5 -3 -7q-1 -1 -4 -1l1 -3h29l-1 3q-3 0 -4 1q-4 1 -6 7l-3 16h24l3 -16q2 -5 -3 -7q-1 -1 -4 -1l1 -3h29zM498 519l-1 3q-3 0 -4 1q-4 1 -6 7l-7 35q-2 5 3 7q1 1 4 1l-1 3h-45v-10v-7h4q-1 3 1 7q4 6 12 6h4q4 0 6 -6l3 -16h-4q-4 0 -9 5l-3 4h-3l5 -23h3q0 4 1 6
q2 5 7 5h4l3 -17q2 -5 -3 -7q-1 -1 -4 -1l1 -3h29zM203 519l-1 3q-3 0 -4 1q-4 1 -6 7l-7 35q-2 5 3 7q1 1 4 1l-1 3h-27q-20 0 -20 -15q0 -13 19 -15l-9 -16q-2 -6 -9 -7q-2 -1 -5 -1l1 -3h19l12 23q2 3 5 3l3 -15q2 -5 -3 -7q-1 -1 -4 -1l1 -3h29zM400 521q0 8 -13 9
q-4 2 -5 14.5t-5.5 23t-18.5 10.5q-5 0 -9 -3.5t-4 -6.5q0 -5 5 -5q4 0 4 6t5 6t7 -7.5t4.5 -19t9.5 -18.5q-8 0 -14 -6.5t-9 -6.5q-5 0 -5 4q0 1 1 2t1 3q0 5 -5 5t-5 -7q0 -12 15 -12q10 0 15 6.5t10 6.5q4 -7 12 -7q4 0 4 3zM827 475v6h-685v-6h685zM827 378v62h-147v-62
h36v28h11v-65h-14v-33h81v33h-14v65h11v-28h36zM648 406v34h-81v-34h11l-15 -23l-15 23h10v34h-62v-34h12l37 -46v-19h-14v-33h81v33h-15v20l37 45h14zM458 308v33h-14v65h14v34h-96q-21 0 -34 -11t-13 -29t13 -29t34 -11h30v-19h-15v-33h81zM283 308v33h-14v65h14v34h-141
v-62h41v28h33v-20h-24v-24h24v-21h-33v28h-41v-61h141zM827 271v6h-685v-6h685zM728 192q0 15 -11.5 26.5t-25.5 11.5q-8 0 -15.5 -5.5t-7.5 -16.5q0 -16 11 -27t26 -11q8 0 15.5 5.5t7.5 16.5zM201 215l2 2q-7 13 -18 13q-16 0 -14 -23q-7 23 -21 23q-12 0 -12 -12l3 -1
q0 6 8 6q16 0 24 -33q3 -10 -1 -14q-2 -2 -5 -1l1 -4h28l-1 4q-2 -2 -4 0q-3 1 -6 9q-5 18 -5 25q0 13 9 13q5 0 12 -7zM823 171l-1 3q-3 0 -4 1q-4 1 -6 7l-7 35q-2 5 3 7q1 1 4 1l-1 3h-45v-10v-7h4q-1 3 1 7q5 6 12 6h4q5 0 6 -6l3 -16h-4q-4 0 -9 5l-3 4h-3l5 -23h3
q0 4 1 6q2 5 7 5h4l3 -17q2 -5 -3 -7q-1 -1 -4 -1l1 -3h29zM621 225l-1 3h-29l1 -3q3 0 4 -1q4 -1 6 -8l5 -21q3 -10 1 -15t-12 -5q-14 0 -20 22l-4 19q-2 8 3 9q2 2 4 0v3h-24l1 -3q3 0 5 -1q4 -1 6 -8l4 -19q7 -27 28 -27q26 0 19 24l-5 22q-1 8 3 9q2 2 5 0zM523 171
l-1 3q-2 0 -3 1q-3 1 -6 9l-7 32q-2 6 3 8q1 1 5 1l-1 3h-14l-29 -42l-5 30q-2 6 3 8q1 1 4 1l-1 3h-21l1 -3q3 0 4 -1q3 -1 5 -8l8 -45l3 -1l30 44l6 -30q1 -7 -2 -9q-1 -1 -4 -1l1 -3h21zM414 171l-1 4q-2 -2 -4 0q-3 1 -6 9l-8 31q-3 8 8 10l-1 3h-30q-25 0 -25 -22
q0 -15 11 -25t24 -10h32zM307 171l-1 3q-3 0 -4 1q-4 1 -6 7l-7 35q-2 5 3 7q1 1 4 1l-1 3h-27q-20 0 -20 -15q0 -13 19 -15l-9 -16q-2 -6 -9 -7q-2 -1 -5 -1l1 -3h19l12 23q2 3 5 3l3 -15q2 -5 -3 -7q-1 -1 -4 -1l1 -3h29zM827 127v6h-685v-6h685zM694 46v2q-2 0 -3 1
q-3 1 -3 4v20q0 3 3 4l3 2v2h-10l-24 -26v18q0 3 3 5q1 1 3 1v2h-15v-2q2 0 3 -1q3 -2 3 -5v-28h3l25 28v-20l-2 -4q-1 -1 -3 -1v-2h14zM633 46v2q-1 -1 -2 0q-3 3 -3 5v21q0 2 3 5q1 1 2 0v2h-29l-2 -10l2 -1l2 4q4 4 7 4h4q4 0 4 -3v-10h-4q-2 0 -5 3l-1 2h-2v-13h2
q0 2 1 3q2 3 5 3h4v-11q0 -3 -4 -3h-4q-3 0 -8 5l-2 4l-2 -1l2 -11h30zM583 81h-15v-2l2 -1q1 -1 0 -4l-9 -19l-5 10l4 8l4 5l2 1v2h-26l1 -2l2 -1l5 -5l3 -5l-7 -13l-8 18q-1 4 0 5l2 1v2h-13v-2l2 -1q3 -4 4 -5l13 -27h1h1l8 16l9 -16h1l12 27l5 5l2 1v2zM480 79v2h-15v-2
l2 -1q1 -1 -1 -4l-6 -9l-6 9q-1 3 0 4t3 1v2h-15v-2q2 0 3 -1q1 0 5 -4l8 -12v-8q0 -3 -2 -5q-1 -1 -3 -1v-2h17v2l-2 1q-3 3 -3 5v8l8 12l5 4zM425 64q0 18 -20 18t-20 -18q0 -19 20 -19t20 19zM364 46v2l-2 1q-3 3 -3 4v20q0 2 3 5l2 1v2h-18q-13 0 -13 -9q0 -4 9 -9
l-7 -10l-5 -4q-1 -1 -3 -1v-2h11l7 12q3 4 7 4v-9l-2 -4q-1 -1 -3 -1v-2h17zM309 46v2q-2 0 -3 1q-3 1 -3 5v20q0 2 3 4q1 1 3 1v2h-18v-2q2 0 3 -1q3 -2 3 -4v-9l-4 2l-8 8l-1 3l2 1v2h-14v-2q2 0 3 -1q5 -2 5 -3l10 -9l-13 -13l-4 -3l-3 -2v-2h17v2l-2 1q-2 2 0 4l8 8l4 2
v-9q0 -4 -3 -5q-1 -1 -3 -1v-2h18zM606 -83q0 9 -11 7v-13q11 0 11 6zM525 -82q0 8 -11 6v-12q11 -2 11 6zM394 -83q0 9 -11 7v-13q11 0 11 6zM564 -92l-5 12l-5 -12h10zM800 -88q0 13 -11 13t-11 -12q0 -13 11 -13t11 12zM441 -88q0 13 -11 13t-11 -12q0 -13 11 -13t11 12z
M176 548h-5q-15 0 -15 15q0 9 8 9q7 0 9 -5zM566 553q-3 -4 -7 -4t-4 2q0 3 4 3q6 0 7 -1zM272 553q-3 -4 -7 -4t-4 2q0 3 4 3q6 0 7 -1zM684 535q0 -13 -11 -13q-9 0 -17 11.5t-8 26.5q0 14 11 14q9 0 17 -12t8 -27zM392 384h-11q-13 0 -13 11t13 11h11v-22zM280 200h-5
q-15 0 -15 15q0 9 8 9q7 0 9 -5zM716 187q0 -13 -11 -13q-9 0 -17 11.5t-8 26.5q0 14 11 14q9 0 17 -12t8 -27zM384 217l9 -35q0 -7 -4 -7h-5q-11 0 -18.5 10t-7.5 22q0 17 14 17h6q3 -1 6 -7zM553 79q5 0 0 -9q-5 9 0 9zM352 64h-3q-8 0 -8 8q0 6 7 6q4 0 4 -4v-10zM417 64
q0 -17 -12 -17t-12 17q0 16 12 16t12 -16z" />
    </font>
</defs>
</svg>
