<?xml version="1.0" standalone="no"?>
<!DOCTYPE svg PUBLIC "-//W3C//DTD SVG 1.1//EN" "http://www.w3.org/Graphics/SVG/1.1/DTD/svg11.dtd" >
<svg xmlns="http://www.w3.org/2000/svg" xmlns:xlink="http://www.w3.org/1999/xlink" version="1.1">
<metadata>
Created by FontForge 20170731 at Mon Feb 12 19:48:46 2007
 By Aleksey,,,
Copyright (c) 2007 by The Hoefler Type Foundry, Inc. 2007 Greek by Cannibal. All rights reserved.
</metadata>
<defs>
<font id="GothamGreek-Light" horiz-adv-x="500" >
  <font-face 
    font-family="Gotham Greek Light"
    font-weight="300"
    font-stretch="normal"
    units-per-em="1000"
    panose-1="2 0 5 3 9 0 0 9 0 4"
    ascent="800"
    descent="-200"
    x-height="510"
    cap-height="700"
    bbox="-176 -173 1145 898"
    underline-thickness="20"
    underline-position="-173"
    unicode-range="U+0020-FB04"
  />
<missing-glyph horiz-adv-x="290" 
 />
    <glyph glyph-name="f_i" unicode="fi" horiz-adv-x="647" 
d="M456 643v67h61v-67h-61zM123 0v465h-74v45h74v50q0 88 45 133q40 40 107 40q41 0 76 -12v-46q-42 13 -76 13q-103 0 -103 -129v-49h178v-45h-178v-465h-49zM462 0v510h49v-510h-49z" />
    <glyph glyph-name="f_l" unicode="fl" horiz-adv-x="647" 
d="M123 0v465h-74v45h74v50q0 88 45 133q40 40 107 40q41 0 76 -12v-46q-42 13 -76 13q-103 0 -103 -129v-49h178v-45h-178v-465h-49zM462 0v730h49v-730h-49z" />
    <glyph glyph-name=".notdef" horiz-adv-x="290" 
 />
    <glyph glyph-name=".null" horiz-adv-x="0" 
 />
    <glyph glyph-name="nonmarkingreturn" horiz-adv-x="333" 
 />
    <glyph glyph-name="space" unicode=" " horiz-adv-x="300" 
 />
    <glyph glyph-name="exclam" unicode="!" horiz-adv-x="288" 
d="M112 183l-15 447v70h58v-70l-15 -447h-28zM93 0v85h66v-85h-66z" />
    <glyph glyph-name="quotedbl" unicode="&#x22;" horiz-adv-x="465" 
d="M248 446l35 254h65v-5l-71 -249h-29zM68 446l35 254h65v-5l-71 -249h-29z" />
    <glyph glyph-name="numbersign" unicode="#" horiz-adv-x="700" 
d="M138 0l32 187h-121v47h129l41 236h-130v47h138l31 183h48l-31 -183h207l31 183h48l-31 -183h120v-47h-128l-41 -236h129v-47h-137l-32 -187h-48l32 187h-207l-32 -187h-48zM226 234h207l41 236h-207z" />
    <glyph glyph-name="dollar" unicode="$" horiz-adv-x="639" 
d="M297 -98v99q-129 11 -237 107l33 39q97 -91 206 -100v284q-112 25 -162 69t-50 118v2q0 75 59.5 126.5t150.5 53.5v58h48v-60q102 -8 193 -82l-33 -39q-74 65 -162 76v-281q113 -24 164.5 -68.5t51.5 -117.5v-2q0 -78 -59.5 -129t-154.5 -55v-98h-48zM299 382v273
q-71 -1 -116 -39t-45 -92v-2q0 -52 34 -84.5t127 -55.5zM343 45q74 2 119.5 40t45.5 95v2q0 54 -35 85.5t-130 53.5v-276z" />
    <glyph glyph-name="percent" unicode="%" horiz-adv-x="842" 
d="M208 350q-67 0 -110 52.5t-43 124.5v2q0 73 43.5 126t111.5 53q67 0 110 -52.5t43 -124.5v-2q0 -73 -43.5 -126t-111.5 -53zM128 0l514 700h54l-514 -700h-54zM614 -8q-67 0 -110 52.5t-43 124.5v2q0 73 43.5 126t111.5 53q67 0 110 -52.5t43 -124.5v-2q0 -73 -43.5 -126
t-111.5 -53zM210 393q44 0 72.5 38.5t28.5 95.5v2q0 58 -30 97t-73 39q-44 0 -72.5 -39t-28.5 -95v-2q0 -58 30 -97t73 -39zM616 35q44 0 72.5 38.5t28.5 95.5v2q0 58 -30 97t-73 39q-44 0 -72.5 -39t-28.5 -95v-2q0 -58 30 -97t73 -39z" />
    <glyph glyph-name="ampersand" unicode="&#x26;" horiz-adv-x="696" 
d="M622 -14l-121 125q-104 -121 -237 -121q-93 0 -154 54.5t-61 139.5v2q0 138 181 205q-42 46 -60 82t-18 78v2q0 68 49.5 113.5t125.5 45.5q68 0 114.5 -44.5t46.5 -107.5v-2q0 -122 -172 -181l184 -189q48 67 91 170l47 -19q-51 -115 -104 -186l129 -133zM285 409
q151 48 151 147v2q0 47 -32 78.5t-79 31.5q-53 0 -87 -32.5t-34 -80.5v-2q0 -33 17.5 -64t63.5 -80zM265 35q109 0 203 110l-207 214q-80 -27 -120 -72.5t-40 -98.5v-2q0 -64 46.5 -107.5t117.5 -43.5z" />
    <glyph glyph-name="quotesingle" unicode="'" horiz-adv-x="258" 
d="M68 446l35 254h65v-5l-71 -249h-29z" />
    <glyph glyph-name="parenleft" unicode="(" horiz-adv-x="437" 
d="M348 -141q-134 76 -205.5 185t-71.5 243t71.5 243t205.5 185l21 -33q-246 -151 -246 -395t246 -395z" />
    <glyph glyph-name="parenright" unicode=")" horiz-adv-x="437" 
d="M82 -141l-21 33q246 151 246 395t-246 395l21 33q134 -76 205.5 -185t71.5 -243t-71.5 -243t-205.5 -185z" />
    <glyph glyph-name="asterisk" unicode="*" horiz-adv-x="430" 
d="M194 406l9 127l-106 -72l-22 37l118 56l-118 56l22 37l106 -72l-9 127h42l-9 -127l106 72l22 -37l-118 -56l118 -56l-22 -37l-106 72l9 -127h-42z" />
    <glyph glyph-name="plus" unicode="+" horiz-adv-x="640" 
d="M295 113v215h-217v48h217v215h50v-215h217v-48h-217v-215h-50z" />
    <glyph glyph-name="comma" unicode="," horiz-adv-x="258" 
d="M65 -107l-12 25q33 17 45.5 35.5t10.5 46.5h-27v85h66v-74q0 -47 -19 -74t-64 -44z" />
    <glyph glyph-name="hyphen" unicode="-" horiz-adv-x="408" 
d="M70 269v56h268v-56h-268z" />
    <glyph glyph-name="period" unicode="." horiz-adv-x="258" 
d="M82 0v85h66v-85h-66z" />
    <glyph glyph-name="slash" unicode="/" horiz-adv-x="515" 
d="M-18 -128l472 926h49l-472 -926h-49z" />
    <glyph glyph-name="zero" unicode="0" horiz-adv-x="720" 
d="M354 -12q-130 0 -209.5 105t-79.5 255v2q0 97 35 179t102.5 132.5t153.5 50.5q130 0 209.5 -105t79.5 -255v-2q0 -97 -35 -179t-102.5 -132.5t-153.5 -50.5zM356 35q105 0 170 93t65 220v2q0 128 -66 221.5t-171 93.5t-170 -92.5t-65 -220.5v-2q0 -127 66 -221t171 -94z
" />
    <glyph glyph-name="one" unicode="1" horiz-adv-x="378" 
d="M179 0v651l-135 -46l-14 41l160 59h40v-705h-51z" />
    <glyph glyph-name="two" unicode="2" horiz-adv-x="606" 
d="M48 0v39l261 236q87 79 121 131.5t34 107.5q0 66 -46.5 108t-111.5 42q-64 0 -111.5 -32t-93.5 -98l-39 26q50 76 106 113t143 37q89 0 148.5 -55t59.5 -137v-2q0 -69 -38.5 -126t-136.5 -146l-214 -194h396v-50h-478z" />
    <glyph glyph-name="three" unicode="3" horiz-adv-x="615" 
d="M311 -12q-160 0 -257 126l40 33q88 -112 218 -112q72 0 122.5 43.5t50.5 111.5v2q0 72 -60.5 112t-157.5 40h-38l-13 29l241 278h-367v49h438v-37l-237 -271q108 -6 178 -56.5t70 -141.5v-2q0 -89 -67.5 -146.5t-160.5 -57.5z" />
    <glyph glyph-name="four" unicode="4" horiz-adv-x="676" 
d="M445 0v171h-379l-18 39l400 495h47v-489h114v-45h-114v-171h-50zM111 216h334v414z" />
    <glyph glyph-name="five" unicode="5" horiz-adv-x="617" 
d="M302 -12q-68 0 -132 31.5t-113 81.5l37 37q103 -103 210 -103q82 0 135 50.5t53 125.5v2q0 73 -53.5 119.5t-138.5 46.5q-77 0 -158 -44l-40 26l20 339h393v-50h-347l-17 -262q78 38 155 38q103 0 171.5 -59t68.5 -152v-2q0 -99 -69 -162t-175 -63z" />
    <glyph glyph-name="six" unicode="6" horiz-adv-x="652" 
d="M331 -12q-102 0 -170 62q-98 88 -98 268q0 183 80.5 288.5t205.5 105.5q103 0 202 -81l-33 -40q-83 74 -173 74q-107 0 -168 -100t-61 -263q76 130 219 130q98 0 169.5 -60.5t71.5 -153.5q0 -99 -70.5 -164.5t-174.5 -65.5zM335 35q83 0 135 53t52 130q0 72 -53.5 120
t-136.5 48t-139 -53t-56 -120q0 -76 56.5 -127t141.5 -51z" />
    <glyph glyph-name="seven" unicode="7" horiz-adv-x="603" 
d="M156 0l318 650h-406v50h464v-38l-319 -662h-57z" />
    <glyph glyph-name="eight" unicode="8" horiz-adv-x="630" 
d="M315 -10q-111 0 -185.5 55.5t-74.5 141.5v2q0 59 43 104.5t112 68.5q-131 53 -131 163v2q0 79 71 131t165 52t165 -52t71 -131v-2q0 -110 -131 -163q69 -23 112 -68.5t43 -104.5v-2q0 -86 -74.5 -141.5t-185.5 -55.5zM315 381q76 0 129 40.5t53 103.5v2q0 59 -52.5 97.5
t-129.5 38.5t-129.5 -38.5t-52.5 -97.5v-2q0 -63 53 -103.5t129 -40.5zM315 37q94 0 150 43t56 105v2q0 65 -60 107.5t-146 42.5t-146 -42.5t-60 -107.5v-2q0 -62 56 -105t150 -43z" />
    <glyph glyph-name="nine" unicode="9" horiz-adv-x="652" 
d="M293 -12q-108 0 -211 87l33 40q89 -80 179 -80q108 0 170 100t62 261q-75 -135 -218 -135q-105 0 -173.5 62t-68.5 154q0 99 69 167t177 68q121 0 192 -85q74 -88 74 -258q0 -166 -81 -273.5t-204 -107.5zM310 307q86 0 140.5 54.5t54.5 125.5q0 75 -56.5 126.5
t-142.5 51.5q-83 0 -134.5 -55.5t-51.5 -132.5q0 -74 53.5 -122t136.5 -48z" />
    <glyph glyph-name="colon" unicode=":" horiz-adv-x="268" 
d="M87 425v85h66v-85h-66zM87 0v85h66v-85h-66z" />
    <glyph glyph-name="semicolon" unicode=";" horiz-adv-x="268" 
d="M87 425v85h66v-85h-66zM70 -107l-12 25q33 17 45.5 35.5t10.5 46.5h-27v85h66v-74q0 -47 -19 -74t-64 -44z" />
    <glyph glyph-name="less" unicode="&#x3c;" horiz-adv-x="640" 
d="M537 91l-464 241v40l464 241v-54l-403 -206l403 -208v-54z" />
    <glyph glyph-name="equal" unicode="=" horiz-adv-x="640" 
d="M93 214v51h454v-51h-454zM93 439v51h454v-51h-454z" />
    <glyph glyph-name="greater" unicode="&#x3e;" horiz-adv-x="640" 
d="M103 91v54l403 206l-403 208v54l464 -241v-40z" />
    <glyph glyph-name="question" unicode="?" horiz-adv-x="539" 
d="M229 183l-13 162l5 5q98 2 153 45t55 115v2q0 63 -46 107t-120 44q-109 0 -193 -103l-36 30q46 58 101 88.5t130 30.5q97 0 157 -56.5t60 -138.5v-2q0 -88 -59.5 -140.5t-152.5 -63.5l-9 -125h-32zM212 0v85h66v-85h-66z" />
    <glyph glyph-name="at" unicode="@" horiz-adv-x="980" 
d="M499 -162q-190 0 -318 127.5t-128 308.5q0 180 127.5 309t310.5 129q182 0 309 -118t127 -278q0 -119 -55 -181t-127 -62q-52 0 -87.5 25t-48.5 68q-75 -93 -171 -93q-74 0 -125.5 50t-51.5 128q0 103 72.5 176t160.5 73q102 0 149 -89l14 75l48 -6l-37 -211
q-9 -52 -9 -72q0 -43 23.5 -65.5t66.5 -22.5q58 0 101 53t43 154q0 91 -51.5 174.5t-145.5 136.5t-205 53q-172 0 -288 -118.5t-116 -287.5q0 -170 116.5 -287t295.5 -117q134 0 250 68l15 -25q-123 -75 -265 -75zM446 120q70 0 125 59.5t55 133.5q0 59 -37.5 99t-94.5 40
q-70 0 -125.5 -57.5t-55.5 -139.5q0 -63 36.5 -99t96.5 -36z" />
    <glyph glyph-name="A" unicode="A" horiz-adv-x="790" 
d="M44 0l326 705h50l326 -705h-57l-89 196h-413l-89 -196h-54zM209 243h369l-184 405z" />
    <glyph glyph-name="B" unicode="B" horiz-adv-x="722" 
d="M104 0v700h289q120 0 182 -62q45 -45 45 -110v-2q0 -118 -119 -166q158 -41 158 -167v-2q0 -87 -68.5 -139t-182.5 -52h-304zM156 377h231q81 0 130.5 38t49.5 106v2q0 59 -46 94t-129 35h-236v-275zM156 48h254q90 0 143 38.5t53 104.5v2q0 65 -55 100.5t-158 35.5h-237
v-281z" />
    <glyph glyph-name="C" unicode="C" horiz-adv-x="738" 
d="M421 -12q-149 0 -248.5 104t-99.5 256v2q0 150 100 256t250 106q87 0 149.5 -28.5t122.5 -83.5l-37 -38q-106 103 -236 103q-126 0 -210.5 -90.5t-84.5 -222.5v-2q0 -133 85.5 -224t210.5 -91q73 0 129 27t112 82l35 -34q-61 -60 -126 -91t-152 -31z" />
    <glyph glyph-name="D" unicode="D" horiz-adv-x="782" 
d="M104 0v700h233q163 0 267.5 -99.5t104.5 -248.5v-2q0 -150 -104.5 -250t-267.5 -100h-233zM156 48h181q143 0 230.5 86t87.5 214v2q0 128 -87.5 215t-230.5 87h-181v-604z" />
    <glyph glyph-name="E" unicode="E" horiz-adv-x="670" 
d="M104 0v700h498v-48h-446v-275h401v-48h-401v-281h451v-48h-503z" />
    <glyph glyph-name="F" unicode="F" horiz-adv-x="656" 
d="M104 0v700h493v-48h-441v-287h396v-48h-396v-317h-52z" />
    <glyph glyph-name="G" unicode="G" horiz-adv-x="784" 
d="M425 -12q-161 0 -256.5 103.5t-95.5 256.5v2q0 147 97 254.5t249 107.5q81 0 140.5 -23t115.5 -69l-34 -39q-96 84 -225 84q-125 0 -207 -92t-82 -221v-2q0 -139 81 -227.5t219 -88.5q63 0 122.5 22.5t100.5 57.5v201h-234v48h284v-270q-52 -46 -123.5 -75.5
t-151.5 -29.5z" />
    <glyph glyph-name="H" unicode="H" horiz-adv-x="760" 
d="M104 0v700h52v-324h448v324h52v-700h-52v328h-448v-328h-52z" />
    <glyph glyph-name="I" unicode="I" horiz-adv-x="305" 
d="M111 0v700h52v-700h-52z" />
    <glyph glyph-name="J" unicode="J" horiz-adv-x="556" 
d="M249 -10q-139 0 -212 131l43 27q34 -57 73.5 -84t98.5 -27q67 0 109.5 49t42.5 138v476h52v-472q0 -118 -64 -182q-56 -56 -143 -56z" />
    <glyph glyph-name="K" unicode="K" horiz-adv-x="722" 
d="M104 0v700h52v-460l446 460h71l-306 -309l319 -391h-68l-288 354l-174 -176v-178h-52z" />
    <glyph glyph-name="L" unicode="L" horiz-adv-x="619" 
d="M104 0v700h52v-652h411v-48h-463z" />
    <glyph glyph-name="M" unicode="M" horiz-adv-x="868" 
d="M104 0v700h49l281 -414l281 414h49v-700h-52v608l-277 -403h-4l-277 403v-608h-50z" />
    <glyph glyph-name="N" unicode="N" horiz-adv-x="790" 
d="M104 0v700h49l483 -609v609h50v-700h-39l-493 622v-622h-50z" />
    <glyph glyph-name="O" unicode="O" horiz-adv-x="850" 
d="M424 -12q-155 0 -253 106t-98 254v2q0 148 99 255t254 107t253 -106t98 -254q1 -1 0 -2q0 -148 -99 -255t-254 -107zM426 35q128 0 212.5 91t84.5 222v2q0 131 -85.5 223t-213.5 92t-212.5 -91t-84.5 -222v-2q0 -131 85.5 -223t213.5 -92z" />
    <glyph glyph-name="P" unicode="P" horiz-adv-x="668" 
d="M104 0v700h254q117 0 188.5 -57t71.5 -157v-2q0 -106 -78.5 -164.5t-194.5 -58.5h-189v-261h-52zM156 309h192q98 0 158 47t60 125v2q0 81 -57.5 125t-154.5 44h-198v-343z" />
    <glyph glyph-name="Q" unicode="Q" horiz-adv-x="850" 
d="M748 -21l-98 89q-94 -80 -226 -80q-155 0 -253 106t-98 254v2q0 148 99 255t254 107t253 -106t98 -254q1 -1 0 -2q0 -144 -92 -247l100 -84zM426 35q107 0 186 66l-136 116l37 41l134 -122q76 89 76 212v2q0 131 -85.5 223t-213.5 92t-212.5 -91t-84.5 -222v-2
q0 -131 85.5 -223t213.5 -92z" />
    <glyph glyph-name="R" unicode="R" horiz-adv-x="723" 
d="M104 0v700h294q114 0 182 -56t68 -144q0 -85 -56 -136.5t-149 -64.5l231 -299h-66l-223 290h-229v-290h-52zM156 337h236q90 0 147 42.5t57 117.5v2q0 71 -53 112t-148 41h-239v-315z" />
    <glyph glyph-name="S" unicode="S" horiz-adv-x="640" 
d="M341 -10q-157 0 -282 112l34 39q59 -55 117 -79.5t134 -24.5q78 0 127.5 39.5t49.5 99.5v2q0 58 -41.5 92t-156.5 57q-126 25 -181 71t-55 126v2q0 78 64 131t161 53q74 0 129.5 -20.5t110.5 -64.5l-33 -41q-91 79 -209 79q-76 0 -123.5 -38t-47.5 -94v-2q0 -59 42.5 -94
t161.5 -59q121 -25 175.5 -70.5t54.5 -122.5v-2q0 -84 -65 -137.5t-167 -53.5z" />
    <glyph glyph-name="T" unicode="T" horiz-adv-x="648" 
d="M298 0v652h-244v48h540v-48h-244v-652h-52z" />
    <glyph glyph-name="U" unicode="U" horiz-adv-x="758" 
d="M380 -11q-129 0 -208 79t-79 223v409h52v-404q0 -123 63 -191.5t174 -68.5q109 0 171 65.5t62 189.5v409h52v-403q0 -147 -78 -227.5t-209 -80.5z" />
    <glyph glyph-name="V" unicode="V" horiz-adv-x="750" 
d="M352 -5l-308 705h58l274 -644l275 644h55l-308 -705h-46z" />
    <glyph glyph-name="W" unicode="W" horiz-adv-x="1112" 
d="M304 -5l-254 705h58l220 -623l205 625h40l205 -625l220 623h54l-254 -705h-42l-205 608l-205 -608h-42z" />
    <glyph glyph-name="X" unicode="X" horiz-adv-x="727" 
d="M51 0l279 357l-269 343h62l239 -308l238 308h61l-268 -342l278 -358h-62l-249 323l-248 -323h-61z" />
    <glyph glyph-name="Y" unicode="Y" horiz-adv-x="716" 
d="M332 0v277l-300 423h65l262 -376l263 376h62l-300 -422v-278h-52z" />
    <glyph glyph-name="Z" unicode="Z" horiz-adv-x="698" 
d="M68 0v29l479 624h-462v47h536v-29l-479 -624h479v-47h-553z" />
    <glyph glyph-name="bracketleft" unicode="[" horiz-adv-x="447" 
d="M98 -130v830h273v-38h-227v-754h227v-38h-273z" />
    <glyph glyph-name="backslash" unicode="\" horiz-adv-x="515" 
d="M469 -128l-472 926h49l472 -926h-49z" />
    <glyph glyph-name="bracketright" unicode="]" horiz-adv-x="447" 
d="M59 -130v38h227v754h-227v38h273v-830h-273z" />
    <glyph glyph-name="asciicircum" unicode="^" 
d="M70 493l158 210h44l158 -210h-53l-128 167l-128 -167h-51z" />
    <glyph glyph-name="underscore" unicode="_" horiz-adv-x="600" 
d="M-2 -160v44h604v-44h-604z" />
    <glyph glyph-name="grave" unicode="`" 
d="M264 595l-107 103l61 30l88 -133h-42z" />
    <glyph glyph-name="a" unicode="a" horiz-adv-x="583" 
d="M248 -12q-78 0 -137.5 42.5t-59.5 117.5v2q0 78 61 122t162 44q86 0 169 -22v22q0 76 -44 116t-124 40t-160 -41l-18 43q95 44 181 44q105 0 161 -56q52 -52 52 -144v-318h-48v85q-69 -97 -195 -97zM251 34q80 0 136.5 44.5t56.5 112.5v58q-90 23 -173 23
q-80 0 -124 -32.5t-44 -86.5v-2q0 -53 43.5 -85t104.5 -32z" />
    <glyph glyph-name="b" unicode="b" horiz-adv-x="667" 
d="M352 -12q-130 0 -210 122v-110h-49v730h49v-334q83 126 210 126q98 0 173 -73t75 -192v-2q0 -119 -75 -193t-173 -74zM347 35q86 0 143 59t57 159v2q0 98 -58.5 159t-141.5 61t-145.5 -62.5t-62.5 -156.5v-2q0 -95 62.5 -157t145.5 -62z" />
    <glyph glyph-name="c" unicode="c" horiz-adv-x="571" 
d="M318 -12q-109 0 -184.5 78.5t-75.5 186.5v2q0 108 76 187.5t184 79.5q114 0 204 -94l-35 -36q-82 84 -170 84q-87 0 -146.5 -63.5t-59.5 -155.5v-2q0 -92 61 -156.5t149 -64.5q95 0 171 85l34 -30q-89 -101 -208 -101z" />
    <glyph glyph-name="d" unicode="d" horiz-adv-x="667" 
d="M308 -12q-98 0 -173 73t-75 192v2q0 119 75 193t173 74q130 0 210 -122v330h49v-730h-49v114q-83 -126 -210 -126zM313 35q83 0 145.5 62.5t62.5 156.5v2q0 95 -62.5 157t-145.5 62q-86 0 -143 -59t-57 -159v-2q0 -98 58.5 -159t141.5 -61z" />
    <glyph glyph-name="e" unicode="e" horiz-adv-x="598" 
d="M308 -12q-103 0 -176.5 75t-73.5 191v2q0 112 69.5 189t172.5 77q105 0 169.5 -76t64.5 -191q0 -12 -1 -20h-423q7 -92 64.5 -146.5t135.5 -54.5q100 0 175 80l34 -30q-89 -96 -211 -96zM110 279h371q-6 84 -53 141t-130 57q-75 0 -128 -56.5t-60 -141.5z" />
    <glyph glyph-name="f" unicode="f" horiz-adv-x="372" 
d="M123 0v465h-74v45h74v50q0 88 45 133q40 40 107 40q41 0 76 -12v-46q-42 13 -76 13q-103 0 -103 -129v-49h178v-45h-178v-465h-49z" />
    <glyph glyph-name="g" unicode="g" horiz-adv-x="667" 
d="M317 -162q-129 0 -234 78l29 40q93 -72 206 -72q91 0 145.5 51t54.5 147v74q-82 -118 -213 -118q-97 0 -171 67.5t-74 172.5v2q0 106 74 174t171 68q133 0 213 -114v102h49v-431q0 -108 -65 -173q-68 -68 -185 -68zM310 85q83 0 147 55t64 139v2q0 85 -63.5 139.5
t-147.5 54.5q-83 0 -140 -53t-57 -140v-2q0 -84 58 -139.5t139 -55.5z" />
    <glyph glyph-name="h" unicode="h" horiz-adv-x="618" 
d="M93 0v730h49v-315q61 107 184 107q95 0 149.5 -58.5t54.5 -151.5v-312h-49v303q0 80 -43 127t-119 47t-126.5 -51.5t-50.5 -130.5v-295h-49z" />
    <glyph glyph-name="i" unicode="i" horiz-adv-x="275" 
d="M100 0v510h49v-510h-49zM94 643v67h61v-67h-61z" />
    <glyph glyph-name="j" unicode="j" horiz-adv-x="275" 
d="M94 643v67h61v-67h-61zM40 -163q-21 0 -41 4v43q18 -3 40 -3q28 0 44.5 18t16.5 53v558h49v-555q0 -58 -29 -88t-80 -30z" />
    <glyph glyph-name="k" unicode="k" horiz-adv-x="576" 
d="M93 0v730h49v-547l316 327h65l-223 -226l230 -284h-62l-202 249l-124 -125v-124h-49z" />
    <glyph glyph-name="l" unicode="l" horiz-adv-x="275" 
d="M100 0v730h49v-730h-49z" />
    <glyph glyph-name="m" unicode="m" horiz-adv-x="950" 
d="M93 0v510h49v-91q30 48 69 75.5t101 27.5q120 0 172 -110q64 110 184 110q90 0 143 -58t53 -155v-309h-49v303q0 82 -40 128t-111 46q-67 0 -114 -49t-47 -131v-297h-49v306q0 79 -40.5 125t-108.5 46t-115.5 -53t-47.5 -130v-294h-49z" />
    <glyph glyph-name="n" unicode="n" horiz-adv-x="618" 
d="M93 0v510h49v-95q61 107 184 107q95 0 149.5 -58.5t54.5 -151.5v-312h-49v303q0 80 -43 127t-119 47t-126.5 -51.5t-50.5 -130.5v-295h-49z" />
    <glyph glyph-name="o" unicode="o" horiz-adv-x="652" 
d="M319 -12q-112 0 -186.5 78t-74.5 187v2q0 109 75.5 188t187.5 79t186.5 -78t74.5 -187v-2q0 -109 -75.5 -188t-187.5 -79zM321 34q90 0 149 64t59 155v2q0 92 -61 156.5t-149 64.5q-90 0 -149 -64t-59 -155v-2q0 -92 61 -156.5t149 -64.5z" />
    <glyph glyph-name="p" unicode="p" horiz-adv-x="667" 
d="M93 -160v670h49v-114q83 126 210 126q98 0 173 -73t75 -192v-2q0 -119 -75 -193t-173 -74q-130 0 -210 122v-270h-49zM347 35q86 0 143 59t57 159v2q0 98 -58.5 159t-141.5 61t-145.5 -62.5t-62.5 -156.5v-2q0 -95 62.5 -157t145.5 -62z" />
    <glyph glyph-name="q" unicode="q" horiz-adv-x="667" 
d="M518 -160v274q-83 -126 -210 -126q-98 0 -173 73t-75 192v2q0 119 75 193t173 74q130 0 210 -122v110h49v-670h-49zM313 35q83 0 145.5 62.5t62.5 156.5v2q0 95 -62.5 157t-145.5 62q-86 0 -143 -59t-57 -159v-2q0 -98 58.5 -159t141.5 -61z" />
    <glyph glyph-name="r" unicode="r" horiz-adv-x="409" 
d="M93 0v510h49v-145q31 70 91.5 113t134.5 40v-54h-5q-93 0 -157 -68t-64 -187v-209h-49z" />
    <glyph glyph-name="s" unicode="s" horiz-adv-x="499" 
d="M258 -10q-55 0 -111.5 20.5t-97.5 53.5l29 39q87 -67 183 -67q53 0 88 27t35 70v2q0 41 -34.5 62t-100.5 40q-35 10 -51 15t-45 18t-42.5 25.5t-25 34t-11.5 47.5v2q0 62 47 101.5t121 39.5q97 0 181 -56l-26 -41q-77 51 -157 51q-52 0 -84 -25t-32 -64v-2q0 -16 8.5 -30
t20 -23t33 -18.5t37 -14.5t43.5 -13q38 -11 62 -20t51.5 -25.5t41 -41t13.5 -56.5v-2q0 -67 -50.5 -108t-125.5 -41z" />
    <glyph glyph-name="t" unicode="t" horiz-adv-x="407" 
d="M263 -9q-63 0 -103 35.5t-40 104.5v334h-74v45h74v163h49v-163h179v-45h-179v-329q0 -99 102 -99q35 0 75 18v-46q-39 -18 -83 -18z" />
    <glyph glyph-name="u" unicode="u" horiz-adv-x="618" 
d="M287 -12q-95 0 -149.5 58.5t-54.5 151.5v312h49v-303q0 -80 43 -127t119 -47t126.5 51.5t50.5 130.5v295h49v-510h-49v95q-61 -107 -184 -107z" />
    <glyph glyph-name="v" unicode="v" horiz-adv-x="591" 
d="M270 -4l-229 514h57l193 -455l195 455h55l-229 -514h-42z" />
    <glyph glyph-name="w" unicode="w" horiz-adv-x="861" 
d="M236 -4l-187 514h55l154 -448l154 450h39l154 -450l154 448h53l-187 -514h-42l-152 437l-153 -437h-42z" />
    <glyph glyph-name="x" unicode="x" horiz-adv-x="577" 
d="M45 0l209 260l-201 250h61l172 -216l172 216h59l-201 -249l209 -261h-61l-180 227l-180 -227h-59z" />
    <glyph glyph-name="y" unicode="y" horiz-adv-x="594" 
d="M155 -163q-51 0 -101 22l17 43q39 -19 87 -19q40 0 69 27t57 93l-245 507h57l212 -456l184 456h54l-221 -528q-33 -78 -73.5 -111.5t-96.5 -33.5z" />
    <glyph glyph-name="z" unicode="z" horiz-adv-x="558" 
d="M58 0v28l368 438h-354v44h427v-28l-368 -438h368v-44h-441z" />
    <glyph glyph-name="braceleft" unicode="{" horiz-adv-x="485" 
d="M416 -141q-66 12 -108.5 30.5t-64.5 45t-30 56t-8 71.5v79q0 63 -26.5 95t-93.5 32h-26v38h26q67 0 93.5 32t26.5 95v79q0 42 8 71.5t30 56t64.5 45t108.5 30.5l7 -32q-58 -15 -91 -29.5t-50.5 -36.5t-22.5 -45.5t-5 -65.5v-75q0 -63 -26.5 -96t-77.5 -48
q54 -18 79 -49.5t25 -94.5v-75q0 -42 5 -65.5t22.5 -45.5t50.5 -36.5t91 -29.5z" />
    <glyph glyph-name="bar" unicode="|" horiz-adv-x="318" 
d="M121 -128v926h44v-926h-44z" />
    <glyph glyph-name="braceright" unicode="}" horiz-adv-x="485" 
d="M64 -141l-7 32q58 15 91 29.5t50.5 36.5t22.5 45.5t5 65.5v75q0 63 26.5 96t77.5 48q-54 18 -79 49.5t-25 94.5v75q0 42 -5 65.5t-22.5 45.5t-50.5 36.5t-91 29.5l7 32q66 -12 108.5 -30.5t64.5 -45t30 -56t8 -71.5v-79q0 -63 26.5 -95t93.5 -32h26v-38h-26
q-67 0 -93.5 -32t-26.5 -95v-79q0 -42 -8 -71.5t-30 -56t-64.5 -45t-108.5 -30.5z" />
    <glyph glyph-name="asciitilde" unicode="~" horiz-adv-x="485" 
d="M116 242l-34 9q14 52 33.5 72.5t50.5 20.5q20 0 66 -20.5t62 -20.5q18 0 28.5 10.5t21.5 39.5l34 -9q-14 -52 -33.5 -72.5t-50.5 -20.5q-20 0 -66 20.5t-62 20.5q-18 0 -28.5 -10.5t-21.5 -39.5z" />
    <glyph glyph-name="uni00A0" unicode="&#xa0;" horiz-adv-x="300" 
 />
    <glyph glyph-name="exclamdown" unicode="&#xa1;" horiz-adv-x="288" 
d="M93 615v85h66v-85h-66zM97 0v70l15 447h28l15 -447v-70h-58z" />
    <glyph glyph-name="cent" unicode="&#xa2;" horiz-adv-x="581" 
d="M214 -6l22 109q-77 27 -125.5 96t-48.5 154v2q0 108 76 187.5t184 79.5h15l16 84h50l-18 -91q74 -18 141 -87l-35 -36q-61 63 -118 77l-83 -432q16 -3 35 -3q95 0 171 85l34 -30q-89 -101 -208 -101q-20 0 -39 3l-19 -97h-50zM248 149l82 427q-91 0 -153 -61.5
t-62 -157.5v-2q0 -70 37 -126t96 -80z" />
    <glyph glyph-name="sterling" unicode="&#xa3;" horiz-adv-x="644" 
d="M70 0v25l86 20v260h-86v48h86v118q0 116 65 181q58 58 150 58q129 0 210 -106l-40 -31q-35 44 -74 67t-97 23q-70 0 -113 -43q-50 -50 -50 -148v-119h298v-48h-298v-258h374v-47h-511z" />
    <glyph glyph-name="currency" unicode="&#xa4;" horiz-adv-x="536" 
d="M494 540l-54 -52q60 -66 60 -157q0 -92 -61 -156l56 -54l-24 -26l-55 55q-68 -57 -156 -57t-156 57l-55 -55l-24 26l56 54q-61 64 -61 156q0 91 60 157l-55 53l24 25l55 -53q68 57 156 57q90 0 156 -57l54 53zM460 331q0 84 -58.5 143t-141.5 59t-141.5 -59t-58.5 -143
q0 -83 58.5 -142t141.5 -59t141.5 59t58.5 142z" />
    <glyph glyph-name="yen" unicode="&#xa5;" horiz-adv-x="686" 
d="M318 0v125h-213v45h213v98h-213v45h195l-268 387h63l249 -373l250 373h60l-269 -387h196v-45h-213v-98h213v-45h-213v-125h-50z" />
    <glyph glyph-name="brokenbar" unicode="&#xa6;" horiz-adv-x="229" 
d="M119 -173h-48v346h48v-346zM119 321h-48v346h48v-346z" />
    <glyph glyph-name="section" unicode="&#xa7;" horiz-adv-x="632" 
d="M329 -10q-65 0 -124.5 26t-102.5 69l38 36q80 -82 194 -82q57 0 86.5 21.5t29.5 55.5v2q0 33 -41 57.5t-142 48.5q-111 27 -156.5 58.5t-45.5 80.5v2q0 44 40 74.5t108 38.5q-86 38 -86 105v2q0 56 48.5 90.5t127.5 34.5q65 0 124.5 -26t102.5 -69l-38 -36
q-80 82 -194 82q-57 0 -86.5 -21.5t-29.5 -55.5v-2q0 -33 41 -57.5t142 -48.5q111 -27 156.5 -58.5t45.5 -80.5v-2q0 -44 -40 -74.5t-108 -38.5q86 -38 86 -105v-2q0 -56 -48.5 -90.5t-127.5 -34.5zM386 253q57 0 93 23.5t36 54.5v2q0 29 -34.5 52.5t-122.5 45.5
q-64 16 -112 16q-57 0 -93 -23.5t-36 -54.5v-2q0 -29 34.5 -52.5t122.5 -45.5q63 -16 112 -16z" />
    <glyph glyph-name="dieresis" unicode="&#xa8;" 
d="M297 595v80h69v-80h-69zM134 595v80h69v-80h-69z" />
    <glyph glyph-name="copyright" unicode="&#xa9;" horiz-adv-x="830" 
d="M414 -12q-151 0 -256 105.5t-105 254.5v2q0 149 106 255.5t257 106.5t256 -105.5t105 -254.5v-2q0 -149 -106 -255.5t-257 -106.5zM414 16q141 0 237 97.5t96 236.5v2q0 138 -95 235t-236 97t-237 -97.5t-96 -236.5v-2q0 -138 95 -235t236 -97zM419 166q-77 0 -129.5 55
t-52.5 133v2q0 77 53 133t130 56t141 -61l-30 -31q-54 52 -112 52q-59 0 -98.5 -43.5t-39.5 -104.5v-2q0 -61 40.5 -105t98.5 -44q60 0 115 52l28 -28q-66 -64 -144 -64z" />
    <glyph glyph-name="ordfeminine" unicode="&#xaa;" horiz-adv-x="390" 
d="M174 411q-43 0 -76 24t-33 66v2q0 43 34 68t90 25q41 0 83 -11v5q0 38 -22 57.5t-61 19.5q-37 0 -88 -24l-13 34q55 26 103 26q58 0 90 -32q28 -28 28 -80v-174h-37v41q-36 -47 -98 -47zM62 293v40h252v-40h-252zM176 447q39 0 67.5 21.5t28.5 55.5v27q-36 11 -85 11
q-38 0 -60 -16t-22 -41v-2q0 -26 20.5 -41t50.5 -15z" />
    <glyph glyph-name="guillemotleft" unicode="&#xab;" horiz-adv-x="580" 
d="M415 42l-160 209v8l160 209l37 -24l-137 -188l137 -190zM211 42l-160 209v8l160 209l37 -24l-137 -188l137 -190z" />
    <glyph glyph-name="logicalnot" unicode="&#xac;" horiz-adv-x="658" 
d="M65 367v48h528v-276h-47v228h-481z" />
    <glyph glyph-name="uni00AD" unicode="&#xad;" horiz-adv-x="408" 
d="M70 269v56h268v-56h-268z" />
    <glyph glyph-name="registered" unicode="&#xae;" horiz-adv-x="830" 
d="M414 -12q-151 0 -256 105.5t-105 254.5v2q0 149 106 255.5t257 106.5t256 -105.5t105 -254.5v-2q0 -149 -106 -255.5t-257 -106.5zM414 16q141 0 237 97.5t96 236.5v2q0 138 -95 235t-236 97t-237 -97.5t-96 -236.5v-2q0 -138 95 -235t236 -97zM276 177v366h164
q60 0 97.5 -28t37.5 -78q0 -87 -100 -106l122 -154h-56l-116 147h-106v-147h-43zM319 364h114q43 0 70 18.5t27 51.5v2q0 37 -31 51.5t-91 14.5h-89v-138z" />
    <glyph glyph-name="macron" unicode="&#xaf;" 
d="M100 600v53h300v-53h-300z" />
    <glyph glyph-name="degree" unicode="&#xb0;" horiz-adv-x="465" 
d="M225 412q-60 0 -105.5 44t-45.5 102v2q0 58 45.5 102t105.5 44t105.5 -44t45.5 -102v-2q0 -58 -45.5 -102t-105.5 -44zM225 456q43 0 72 30.5t29 71.5v2q0 41 -29 71.5t-72 30.5t-72 -30.5t-29 -71.5v-2q0 -41 29 -71.5t72 -30.5z" />
    <glyph glyph-name="plusminus" unicode="&#xb1;" horiz-adv-x="571" 
d="M519 316h-211v-206h-44v206h-214v43h214v202h44v-202h211v-43zM519 0h-469v42h469v-42z" />
    <glyph glyph-name="twosuperior" unicode="&#xb2;" horiz-adv-x="359" 
d="M295 312h-277v28l160 145q42 37 57 62.5t15 50.5q0 31 -24 52t-60 21q-64 0 -110 -73l-30 22q56 88 142 88q53 0 87.5 -31.5t34.5 -77.5q0 -34 -18.5 -64t-68.5 -75l-122 -112h214v-36z" />
    <glyph glyph-name="threesuperior" unicode="&#xb3;" horiz-adv-x="359" 
d="M298 424q0 -50 -38.5 -83t-94.5 -33q-93 0 -148 75l28 24q50 -63 121 -63q38 0 65 22t27 57q0 39 -32 58.5t-88 19.5h-23l-9 23l130 144h-197v36h253l-1 -27l-129 -143q63 -5 99.5 -32.5t36.5 -77.5z" />
    <glyph glyph-name="acute" unicode="&#xb4;" 
d="M194 595l88 133l61 -30l-107 -103h-42z" />
    <glyph glyph-name="mu" unicode="&#xb5;" horiz-adv-x="625" 
d="M142 -160h-49v670h49v-295q0 -70 46.5 -126t120.5 -56q71 0 121.5 52t50.5 130v295h49v-510h-49v95q-27 -48 -71.5 -77.5t-98.5 -29.5q-59 0 -104 32t-65 71v-251z" />
    <glyph glyph-name="paragraph" unicode="&#xb6;" horiz-adv-x="536" 
d="M335 270q-125 0 -205 55.5t-80 158.5v2q0 99 72 156.5t187 57.5h76v-700h-50v270z" />
    <glyph glyph-name="periodcentered" unicode="&#xb7;" horiz-adv-x="244" 
d="M70 430v79h63v-79h-63z" />
    <glyph glyph-name="cedilla" unicode="&#xb8;" 
d="M217 -148l-55 26l90 132h43z" />
    <glyph glyph-name="onesuperior" unicode="&#xb9;" horiz-adv-x="359" 
d="M208 312h-39v349l-69 -26l-13 34l93 35h28v-392z" />
    <glyph glyph-name="ordmasculine" unicode="&#xba;" horiz-adv-x="390" 
d="M194 411q-61 0 -102 42.5t-41 102.5v2q0 60 41.5 103.5t103.5 43.5q61 0 102 -42.5t41 -102.5v-2q0 -60 -41.5 -103.5t-103.5 -43.5zM51 293v40h288v-40h-288zM196 450q44 0 72 31t28 75v2q0 45 -29.5 76.5t-72.5 31.5q-44 0 -72 -31t-28 -75v-2q0 -45 29.5 -76.5
t72.5 -31.5z" />
    <glyph glyph-name="guillemotright" unicode="&#xbb;" horiz-adv-x="580" 
d="M304 42l-37 24l137 188l-137 190l37 24l160 -209v-8zM100 42l-37 24l137 188l-137 190l37 24l160 -209v-8z" />
    <glyph glyph-name="onehalf" unicode="&#xbd;" horiz-adv-x="867" 
d="M91 0l514 700h46l-514 -700h-46zM208 312h-39v349l-69 -26l-13 34l93 35h28v-392zM721 0h-277v28l160 145q42 38 57 63t15 50q0 42 -41 62q-20 10 -43 10q-63 0 -110 -72l-30 22q56 87 142 87q54 0 88.5 -31t34.5 -76q0 -35 -18.5 -65t-68.5 -75l-123 -112h214v-36z" />
    <glyph glyph-name="questiondown" unicode="&#xbf;" horiz-adv-x="539" 
d="M256 615v85h66v-85h-66zM269 -9q-97 0 -157 56.5t-60 138.5v2q0 88 59.5 140.5t152.5 63.5l9 125h32l13 -162l-5 -5q-98 -2 -153 -45t-55 -115v-2q0 -63 46 -107t120 -44q109 0 193 103l36 -30q-46 -58 -101 -88.5t-130 -30.5z" />
    <glyph glyph-name="Agrave" unicode="&#xc0;" horiz-adv-x="790" 
d="M44 0l326 705h50l326 -705h-57l-89 196h-413l-89 -196h-54zM209 243h369l-184 405zM370 765l-107 103l61 30l88 -133h-42z" />
    <glyph glyph-name="Aacute" unicode="&#xc1;" horiz-adv-x="790" 
d="M44 0l326 705h50l326 -705h-57l-89 196h-413l-89 -196h-54zM209 243h369l-184 405zM378 765l88 133l61 -30l-107 -103h-42z" />
    <glyph glyph-name="Acircumflex" unicode="&#xc2;" horiz-adv-x="790" 
d="M44 0l326 705h50l326 -705h-57l-89 196h-413l-89 -196h-54zM209 243h369l-184 405zM275 760l100 122h40l100 -122h-47l-74 68l-74 -68h-45z" />
    <glyph glyph-name="Atilde" unicode="&#xc3;" horiz-adv-x="790" 
d="M44 0l326 705h50l326 -705h-57l-89 196h-413l-89 -196h-54zM209 243h369l-184 405zM281 756l-34 9q14 52 33.5 72.5t50.5 20.5q19 0 65 -20.5t63 -20.5q18 0 28.5 10.5t21.5 39.5l34 -9q-14 -52 -33.5 -72.5t-50.5 -20.5q-19 0 -65 20.5t-63 20.5q-18 0 -28.5 -10.5
t-21.5 -39.5z" />
    <glyph glyph-name="Adieresis" unicode="&#xc4;" horiz-adv-x="790" 
d="M44 0l326 705h50l326 -705h-57l-89 196h-413l-89 -196h-54zM209 243h369l-184 405zM442 765v80h69v-80h-69zM279 765v80h69v-80h-69z" />
    <glyph glyph-name="Aring" unicode="&#xc5;" horiz-adv-x="790" 
d="M44 0l313 677q-26 12 -43 35t-17 51v2q0 38 29.5 65.5t68.5 27.5t68.5 -27.5t29.5 -65.5v-2q0 -28 -17 -51t-43 -34l313 -678h-57l-89 196h-413l-89 -196h-54zM395 702q25 0 43.5 18t18.5 43v2q0 25 -18.5 43t-43.5 18t-43.5 -18t-18.5 -43v-2q0 -25 18.5 -43t43.5 -18z
M209 243h369l-184 405z" />
    <glyph glyph-name="AE" unicode="&#xc6;" horiz-adv-x="1045" 
d="M20 0l424 700h533v-48h-431v-275h386v-48h-386v-281h436v-48h-488v196h-300l-118 -196h-56zM222 243h272v410h-26z" />
    <glyph glyph-name="Ccedilla" unicode="&#xc7;" horiz-adv-x="738" 
d="M367 -148l-55 26l76 111q-137 13 -226 114.5t-89 244.5v2q0 150 100 256t250 106q87 0 149.5 -28.5t122.5 -83.5l-37 -38q-106 103 -236 103q-126 0 -210.5 -90.5t-84.5 -222.5v-2q0 -133 85.5 -224t210.5 -91q73 0 129 27t112 82l35 -34q-58 -57 -120.5 -88t-144.5 -34z
" />
    <glyph glyph-name="Egrave" unicode="&#xc8;" horiz-adv-x="670" 
d="M104 0v700h498v-48h-446v-275h401v-48h-401v-281h451v-48h-503zM349 765l-107 103l61 30l88 -133h-42z" />
    <glyph glyph-name="Eacute" unicode="&#xc9;" horiz-adv-x="670" 
d="M104 0v700h498v-48h-446v-275h401v-48h-401v-281h451v-48h-503zM309 765l88 133l61 -30l-107 -103h-42z" />
    <glyph glyph-name="Ecircumflex" unicode="&#xca;" horiz-adv-x="670" 
d="M104 0v700h498v-48h-446v-275h401v-48h-401v-281h451v-48h-503zM229 765l100 122h40l100 -122h-47l-74 68l-74 -68h-45z" />
    <glyph glyph-name="Edieresis" unicode="&#xcb;" horiz-adv-x="670" 
d="M104 0v700h498v-48h-446v-275h401v-48h-401v-281h451v-48h-503zM396 765v80h69v-80h-69zM233 765v80h69v-80h-69z" />
    <glyph glyph-name="Igrave" unicode="&#xcc;" horiz-adv-x="305" 
d="M111 0v700h52v-700h-52zM114 765l-107 103l61 30l88 -133h-42z" />
    <glyph glyph-name="Iacute" unicode="&#xcd;" horiz-adv-x="305" 
d="M111 0v700h52v-700h-52zM118 765l88 133l61 -30l-107 -103h-42z" />
    <glyph glyph-name="Icircumflex" unicode="&#xce;" horiz-adv-x="305" 
d="M111 0v700h52v-700h-52zM18 765l100 122h40l100 -122h-47l-74 68l-74 -68h-45z" />
    <glyph glyph-name="Idieresis" unicode="&#xcf;" horiz-adv-x="305" 
d="M111 0v700h52v-700h-52zM22 765v80h69v-80h-69zM185 765v80h69v-80h-69z" />
    <glyph glyph-name="Eth" unicode="&#xd0;" horiz-adv-x="812" 
d="M134 0v328h-75v48h75v324h233q163 0 267.5 -99.5t104.5 -248.5v-2q0 -150 -104.5 -250t-267.5 -100h-233zM186 48h181q143 0 230.5 86t87.5 214v2q0 128 -87.5 215t-230.5 87h-181v-276h232v-48h-232v-280z" />
    <glyph glyph-name="Ntilde" unicode="&#xd1;" horiz-adv-x="790" 
d="M104 0v700h49l483 -609v609h50v-700h-39l-493 622v-622h-50zM281 756l-34 9q14 52 33.5 72.5t50.5 20.5q19 0 65 -20.5t63 -20.5q18 0 28.5 10.5t21.5 39.5l34 -9q-14 -52 -33.5 -72.5t-50.5 -20.5q-19 0 -65 20.5t-63 20.5q-18 0 -28.5 -10.5t-21.5 -39.5z" />
    <glyph glyph-name="Ograve" unicode="&#xd2;" horiz-adv-x="850" 
d="M424 -12q-155 0 -253 106t-98 254v2q0 148 99 255t254 107t253 -106t98 -254q1 -1 0 -2q0 -148 -99 -255t-254 -107zM426 35q128 0 212.5 91t84.5 222v2q0 131 -85.5 223t-213.5 92t-212.5 -91t-84.5 -222v-2q0 -131 85.5 -223t213.5 -92zM399 765l-107 103l61 30
l88 -133h-42z" />
    <glyph glyph-name="Oacute" unicode="&#xd3;" horiz-adv-x="850" 
d="M424 -12q-155 0 -253 106t-98 254v2q0 148 99 255t254 107t253 -106t98 -254q1 -1 0 -2q0 -148 -99 -255t-254 -107zM426 35q128 0 212.5 91t84.5 222v2q0 131 -85.5 223t-213.5 92t-212.5 -91t-84.5 -222v-2q0 -131 85.5 -223t213.5 -92zM409 765l88 133l61 -30
l-107 -103h-42z" />
    <glyph glyph-name="Ocircumflex" unicode="&#xd4;" horiz-adv-x="850" 
d="M424 -12q-155 0 -253 106t-98 254v2q0 148 99 255t254 107t253 -106t98 -254q1 -1 0 -2q0 -148 -99 -255t-254 -107zM426 35q128 0 212.5 91t84.5 222v2q0 131 -85.5 223t-213.5 92t-212.5 -91t-84.5 -222v-2q0 -131 85.5 -223t213.5 -92zM305 765l100 122h40l100 -122
h-47l-74 68l-74 -68h-45z" />
    <glyph glyph-name="Otilde" unicode="&#xd5;" horiz-adv-x="850" 
d="M424 -12q-155 0 -253 106t-98 254v2q0 148 99 255t254 107t253 -106t98 -254q1 -1 0 -2q0 -148 -99 -255t-254 -107zM426 35q128 0 212.5 91t84.5 222v2q0 131 -85.5 223t-213.5 92t-212.5 -91t-84.5 -222v-2q0 -131 85.5 -223t213.5 -92zM311 756l-34 9q14 52 33.5 72.5
t50.5 20.5q19 0 65 -20.5t63 -20.5q18 0 28.5 10.5t21.5 39.5l34 -9q-14 -52 -33.5 -72.5t-50.5 -20.5q-19 0 -65 20.5t-63 20.5q-18 0 -28.5 -10.5t-21.5 -39.5z" />
    <glyph glyph-name="Odieresis" unicode="&#xd6;" horiz-adv-x="850" 
d="M424 -12q-155 0 -253 106t-98 254v2q0 148 99 255t254 107t253 -106t98 -254q1 -1 0 -2q0 -148 -99 -255t-254 -107zM426 35q128 0 212.5 91t84.5 222v2q0 131 -85.5 223t-213.5 92t-212.5 -91t-84.5 -222v-2q0 -131 85.5 -223t213.5 -92zM472 765v80h69v-80h-69z
M309 765v80h69v-80h-69z" />
    <glyph glyph-name="Oslash" unicode="&#xd8;" horiz-adv-x="850" 
d="M424 -12q-133 0 -228 82l-71 -75h-60l100 106q-92 103 -92 247v2q0 148 99 255t254 107q134 0 228 -83l71 76h60l-100 -106q92 -103 92 -247q1 -1 0 -2q0 -148 -99 -255t-254 -107zM201 140l419 450q-53 48 -122 66q-34 9 -74 9q-128 0 -212.5 -91t-84.5 -222v-2
q0 -122 74 -210zM426 35q128 0 212.5 91t84.5 222v2q0 122 -74 210l-419 -450q81 -75 196 -75z" />
    <glyph glyph-name="Ugrave" unicode="&#xd9;" horiz-adv-x="758" 
d="M380 -11q-129 0 -208 79t-79 223v409h52v-404q0 -123 63 -191.5t174 -68.5q109 0 171 65.5t62 189.5v409h52v-403q0 -147 -78 -227.5t-209 -80.5zM363 760l-107 103l61 30l88 -133h-42z" />
    <glyph glyph-name="Uacute" unicode="&#xda;" horiz-adv-x="758" 
d="M380 -11q-129 0 -208 79t-79 223v409h52v-404q0 -123 63 -191.5t174 -68.5q109 0 171 65.5t62 189.5v409h52v-403q0 -147 -78 -227.5t-209 -80.5zM355 760l88 133l61 -30l-107 -103h-42z" />
    <glyph glyph-name="Ucircumflex" unicode="&#xdb;" horiz-adv-x="758" 
d="M380 -11q-129 0 -208 79t-79 223v409h52v-404q0 -123 63 -191.5t174 -68.5q109 0 171 65.5t62 189.5v409h52v-403q0 -147 -78 -227.5t-209 -80.5zM260 760l100 122h40l100 -122h-47l-74 68l-74 -68h-45z" />
    <glyph glyph-name="Udieresis" unicode="&#xdc;" horiz-adv-x="758" 
d="M380 -11q-129 0 -208 79t-79 223v409h52v-404q0 -123 63 -191.5t174 -68.5q109 0 171 65.5t62 189.5v409h52v-403q0 -147 -78 -227.5t-209 -80.5zM427 760v80h69v-80h-69zM264 760v80h69v-80h-69z" />
    <glyph glyph-name="Yacute" unicode="&#xdd;" horiz-adv-x="716" 
d="M332 0v277l-300 423h65l262 -376l263 376h62l-300 -422v-278h-52zM340 760l88 133l61 -30l-107 -103h-42z" />
    <glyph glyph-name="Thorn" unicode="&#xde;" horiz-adv-x="673" 
d="M104 0v700h52v-127h202q117 0 188.5 -57t71.5 -157v-2q0 -106 -78.5 -165t-194.5 -59h-189v-133h-52zM156 181h192q98 0 158 47.5t60 125.5v2q0 81 -57.5 125t-154.5 44h-198v-344z" />
    <glyph glyph-name="germandbls" unicode="&#xdf;" horiz-adv-x="620" 
d="M289 -2v43q101 2 158 39.5t57 106.5v2q0 130 -215 153v41q170 52 170 175v2q0 57 -41.5 94t-107.5 37q-74 0 -121 -52t-47 -139v-500h-49v500q0 105 60 171t160 66q89 0 144 -50t55 -125v-2q0 -68 -45.5 -117t-111.5 -73q88 -15 145 -59.5t57 -119.5v-2q0 -90 -72 -140.5
t-196 -50.5z" />
    <glyph glyph-name="agrave" unicode="&#xe0;" horiz-adv-x="583" 
d="M248 -12q-78 0 -137.5 42.5t-59.5 117.5v2q0 78 61 122t162 44q86 0 169 -22v22q0 76 -44 116t-124 40t-160 -41l-18 43q95 44 181 44q105 0 161 -56q52 -52 52 -144v-318h-48v85q-69 -97 -195 -97zM251 34q80 0 136.5 44.5t56.5 112.5v58q-90 23 -173 23
q-80 0 -124 -32.5t-44 -86.5v-2q0 -53 43.5 -85t104.5 -32zM264 595l-107 103l61 30l88 -133h-42z" />
    <glyph glyph-name="aacute" unicode="&#xe1;" horiz-adv-x="583" 
d="M248 -12q-78 0 -137.5 42.5t-59.5 117.5v2q0 78 61 122t162 44q86 0 169 -22v22q0 76 -44 116t-124 40t-160 -41l-18 43q95 44 181 44q105 0 161 -56q52 -52 52 -144v-318h-48v85q-69 -97 -195 -97zM251 34q80 0 136.5 44.5t56.5 112.5v58q-90 23 -173 23
q-80 0 -124 -32.5t-44 -86.5v-2q0 -53 43.5 -85t104.5 -32zM256 595l88 133l61 -30l-107 -103h-42z" />
    <glyph glyph-name="acircumflex" unicode="&#xe2;" horiz-adv-x="583" 
d="M248 -12q-78 0 -137.5 42.5t-59.5 117.5v2q0 78 61 122t162 44q86 0 169 -22v22q0 76 -44 116t-124 40t-160 -41l-18 43q95 44 181 44q99 0 156 -51.5t57 -148.5v-318h-48v85q-69 -97 -195 -97zM251 34q80 0 136.5 44.5t56.5 112.5v58q-90 23 -173 23q-80 0 -124 -32.5
t-44 -86.5v-2q0 -53 43.5 -85t104.5 -32zM170 595l100 122h40l100 -122h-47l-74 68l-74 -68h-45z" />
    <glyph glyph-name="atilde" unicode="&#xe3;" horiz-adv-x="583" 
d="M248 -12q-78 0 -137.5 42.5t-59.5 117.5v2q0 78 61 122t162 44q86 0 169 -22v22q0 76 -44 116t-124 40t-160 -41l-18 43q95 44 181 44q105 0 161 -56q52 -52 52 -144v-318h-48v85q-69 -97 -195 -97zM251 34q80 0 136.5 44.5t56.5 112.5v58q-90 23 -173 23
q-80 0 -124 -32.5t-44 -86.5v-2q0 -53 43.5 -85t104.5 -32zM176 586l-34 9q14 52 33.5 72.5t50.5 20.5q19 0 65.5 -20.5t62.5 -20.5q18 0 28.5 10.5t21.5 39.5l34 -9q-14 -52 -33.5 -72.5t-50.5 -20.5q-20 0 -66 20.5t-62 20.5q-18 0 -28.5 -10.5t-21.5 -39.5z" />
    <glyph glyph-name="adieresis" unicode="&#xe4;" horiz-adv-x="583" 
d="M248 -12q-78 0 -137.5 42.5t-59.5 117.5v2q0 78 61 122t162 44q86 0 169 -22v22q0 76 -44 116t-124 40t-160 -41l-18 43q95 44 181 44q105 0 161 -56q52 -52 52 -144v-318h-48v85q-69 -97 -195 -97zM251 34q80 0 136.5 44.5t56.5 112.5v58q-90 23 -173 23
q-80 0 -124 -32.5t-44 -86.5v-2q0 -53 43.5 -85t104.5 -32zM337 595v80h69v-80h-69zM174 595v80h69v-80h-69z" />
    <glyph glyph-name="aring" unicode="&#xe5;" horiz-adv-x="583" 
d="M248 -12q-78 0 -137.5 42.5t-59.5 117.5v2q0 78 61 122t162 44q86 0 169 -22v22q0 76 -44 116t-124 40t-160 -41l-18 43q95 44 181 44q105 0 161 -56q52 -52 52 -144v-318h-48v85q-69 -97 -195 -97zM251 34q80 0 136.5 44.5t56.5 112.5v58q-90 23 -173 23
q-80 0 -124 -32.5t-44 -86.5v-2q0 -53 43.5 -85t104.5 -32zM290 593q-39 0 -68.5 27.5t-29.5 65.5v2q0 38 29.5 65.5t68.5 27.5t68.5 -27.5t29.5 -65.5v-2q0 -38 -29.5 -65.5t-68.5 -27.5zM290 625q25 0 43.5 18t18.5 43v2q0 25 -18.5 43t-43.5 18t-43.5 -18t-18.5 -43v-2
q0 -25 18.5 -43t43.5 -18z" />
    <glyph glyph-name="ae" unicode="&#xe6;" horiz-adv-x="952" 
d="M243 -12q-77 0 -134.5 42.5t-57.5 117.5v2q0 78 60 122t158 44q77 0 160 -22v22q0 76 -42 116t-119 40q-73 0 -153 -41l-18 43q93 44 174 44q158 0 193 -128q31 60 85.5 96t120.5 36q105 0 169.5 -76t64.5 -191q0 -12 -1 -20h-423q7 -92 64.5 -146.5t135.5 -54.5
q100 0 175 80l34 -30q-89 -96 -211 -96q-63 0 -117.5 29.5t-88.5 82.5q-97 -112 -229 -112zM480 279h371q-6 84 -53 141t-130 57q-75 0 -128 -56.5t-60 -141.5zM246 34q118 0 204 107q-21 52 -22 109q-95 22 -162 22q-77 0 -120 -32.5t-43 -86.5v-2q0 -54 41 -85.5
t102 -31.5z" />
    <glyph glyph-name="ccedilla" unicode="&#xe7;" horiz-adv-x="571" 
d="M263 -148l-55 26l76 112q-97 13 -161.5 88.5t-64.5 174.5v2q0 108 76 187.5t184 79.5q114 0 204 -94l-35 -36q-82 84 -170 84q-87 0 -146.5 -63.5t-59.5 -155.5v-2q0 -92 61 -156.5t149 -64.5q95 0 171 85l34 -30q-86 -96 -196 -101z" />
    <glyph glyph-name="egrave" unicode="&#xe8;" horiz-adv-x="598" 
d="M308 -12q-103 0 -176.5 75t-73.5 191v2q0 112 69.5 189t172.5 77q105 0 169.5 -76t64.5 -191q0 -12 -1 -20h-423q7 -92 64.5 -146.5t135.5 -54.5q100 0 175 80l34 -30q-89 -96 -211 -96zM110 279h371q-6 84 -53 141t-130 57q-75 0 -128 -56.5t-60 -141.5zM286 595
l-107 103l61 30l88 -133h-42z" />
    <glyph glyph-name="eacute" unicode="&#xe9;" horiz-adv-x="598" 
d="M308 -12q-103 0 -176.5 75t-73.5 191v2q0 112 69.5 189t172.5 77q105 0 169.5 -76t64.5 -191q0 -12 -1 -20h-423q7 -92 64.5 -146.5t135.5 -54.5q100 0 175 80l34 -30q-89 -96 -211 -96zM110 279h371q-6 84 -53 141t-130 57q-75 0 -128 -56.5t-60 -141.5zM257 595l88 133
l61 -30l-107 -103h-42z" />
    <glyph glyph-name="ecircumflex" unicode="&#xea;" horiz-adv-x="598" 
d="M308 -12q-103 0 -176.5 75t-73.5 191v2q0 112 69.5 189t172.5 77q105 0 169.5 -76t64.5 -191q0 -12 -1 -20h-423q7 -92 64.5 -146.5t135.5 -54.5q100 0 175 80l34 -30q-89 -96 -211 -96zM110 279h371q-6 84 -53 141t-130 57q-75 0 -128 -56.5t-60 -141.5zM177 595
l100 122h40l100 -122h-47l-74 68l-74 -68h-45z" />
    <glyph glyph-name="edieresis" unicode="&#xeb;" horiz-adv-x="598" 
d="M308 -12q-103 0 -176.5 75t-73.5 191v2q0 112 69.5 189t172.5 77q105 0 169.5 -76t64.5 -191q0 -12 -1 -20h-423q7 -92 64.5 -146.5t135.5 -54.5q100 0 175 80l34 -30q-89 -96 -211 -96zM110 279h371q-6 84 -53 141t-130 57q-75 0 -128 -56.5t-60 -141.5zM344 595v80h69
v-80h-69zM181 595v80h69v-80h-69z" />
    <glyph glyph-name="igrave" unicode="&#xec;" horiz-adv-x="275" 
d="M100 0v510h49v-510h-49zM102 595l-107 103l61 30l88 -133h-42z" />
    <glyph glyph-name="iacute" unicode="&#xed;" horiz-adv-x="275" 
d="M100 0v510h49v-510h-49zM105 595l88 133l61 -30l-107 -103h-42z" />
    <glyph glyph-name="icircumflex" unicode="&#xee;" horiz-adv-x="275" 
d="M100 0v510h49v-510h-49zM4 595l100 122h40l100 -122h-47l-74 68l-74 -68h-45z" />
    <glyph glyph-name="idieresis" unicode="&#xef;" horiz-adv-x="275" 
d="M100 0v510h49v-510h-49zM8 595v80h69v-80h-69zM171 595v80h69v-80h-69z" />
    <glyph glyph-name="eth" unicode="&#xf0;" horiz-adv-x="638" 
d="M309 -12q-106 0 -178.5 75.5t-72.5 179.5v2q0 105 71 173t169 68q95 0 177 -63l-147 208l-133 -68l-29 36l137 67l-45 64h63l27 -41l98 50l28 -36l-102 -50l109 -161q87 -129 87 -243v-2q0 -106 -72.5 -182.5t-186.5 -76.5zM314 34q88 0 144.5 61.5t56.5 146.5v2
q0 82 -61 140t-150 58q-87 0 -140 -57t-53 -143v-2q0 -81 58.5 -143.5t144.5 -62.5z" />
    <glyph glyph-name="ntilde" unicode="&#xf1;" horiz-adv-x="618" 
d="M93 0v510h49v-95q61 107 184 107q95 0 149.5 -58.5t54.5 -151.5v-312h-49v303q0 80 -43 127t-119 47t-126.5 -51.5t-50.5 -130.5v-295h-49zM197 586l-34 9q14 52 33.5 72.5t50.5 20.5q19 0 65.5 -20.5t62.5 -20.5q18 0 28.5 10.5t21.5 39.5l34 -9q-14 -52 -33.5 -72.5
t-50.5 -20.5q-19 0 -65 20.5t-63 20.5q-18 0 -28.5 -10.5t-21.5 -39.5z" />
    <glyph glyph-name="ograve" unicode="&#xf2;" horiz-adv-x="652" 
d="M319 -12q-112 0 -186.5 78t-74.5 187v2q0 109 75.5 188t187.5 79t186.5 -78t74.5 -187v-2q0 -109 -75.5 -188t-187.5 -79zM321 34q90 0 149 64t59 155v2q0 92 -61 156.5t-149 64.5q-90 0 -149 -64t-59 -155v-2q0 -92 61 -156.5t149 -64.5zM298 595l-107 103l61 30
l88 -133h-42z" />
    <glyph glyph-name="oacute" unicode="&#xf3;" horiz-adv-x="652" 
d="M319 -12q-112 0 -186.5 78t-74.5 187v2q0 109 75.5 188t187.5 79t186.5 -78t74.5 -187v-2q0 -109 -75.5 -188t-187.5 -79zM321 34q90 0 149 64t59 155v2q0 92 -61 156.5t-149 64.5q-90 0 -149 -64t-59 -155v-2q0 -92 61 -156.5t149 -64.5zM300 595l88 133l61 -30
l-107 -103h-42z" />
    <glyph glyph-name="ocircumflex" unicode="&#xf4;" horiz-adv-x="652" 
d="M319 -12q-112 0 -186.5 78t-74.5 187v2q0 109 75.5 188t187.5 79t186.5 -78t74.5 -187v-2q0 -109 -75.5 -188t-187.5 -79zM321 34q90 0 149 64t59 155v2q0 92 -61 156.5t-149 64.5q-90 0 -149 -64t-59 -155v-2q0 -92 61 -156.5t149 -64.5zM200 595l100 122h40l100 -122
h-47l-74 68l-74 -68h-45z" />
    <glyph glyph-name="otilde" unicode="&#xf5;" horiz-adv-x="652" 
d="M319 -12q-112 0 -186.5 78t-74.5 187v2q0 109 75.5 188t187.5 79t186.5 -78t74.5 -187v-2q0 -109 -75.5 -188t-187.5 -79zM321 34q90 0 149 64t59 155v2q0 92 -61 156.5t-149 64.5q-90 0 -149 -64t-59 -155v-2q0 -92 61 -156.5t149 -64.5zM206 586l-34 9q14 52 33.5 72.5
t50.5 20.5q20 0 66 -20.5t62 -20.5q18 0 28.5 10.5t21.5 39.5l34 -9q-14 -52 -33.5 -72.5t-50.5 -20.5q-20 0 -66 20.5t-62 20.5q-18 0 -28.5 -10.5t-21.5 -39.5z" />
    <glyph glyph-name="odieresis" unicode="&#xf6;" horiz-adv-x="652" 
d="M319 -12q-112 0 -186.5 78t-74.5 187v2q0 109 75.5 188t187.5 79t186.5 -78t74.5 -187v-2q0 -109 -75.5 -188t-187.5 -79zM321 34q90 0 149 64t59 155v2q0 92 -61 156.5t-149 64.5q-90 0 -149 -64t-59 -155v-2q0 -92 61 -156.5t149 -64.5zM367 595v80h69v-80h-69z
M204 595v80h69v-80h-69z" />
    <glyph glyph-name="oslash" unicode="&#xf8;" horiz-adv-x="652" 
d="M319 -12q-96 0 -167 60l-52 -53h-57l79 82q-64 75 -64 176v2q0 109 75.5 188t187.5 79q96 0 167 -61l52 56h57l-80 -84q65 -75 65 -176v-2q0 -109 -75.5 -188t-187.5 -79zM158 114l298 309q-40 36 -86 47q-24 6 -51 6q-90 0 -149 -64t-59 -155v-2q0 -80 47 -141zM321 34
q90 0 149 64t59 155v2q0 79 -47 141l-298 -310q58 -52 137 -52z" />
    <glyph glyph-name="ugrave" unicode="&#xf9;" horiz-adv-x="618" 
d="M287 -12q-95 0 -149.5 58.5t-54.5 151.5v312h49v-303q0 -80 43 -127t119 -47t126.5 51.5t50.5 130.5v295h49v-510h-49v95q-61 -107 -184 -107zM289 590l-107 103l61 30l88 -133h-42z" />
    <glyph glyph-name="uacute" unicode="&#xfa;" horiz-adv-x="618" 
d="M287 -12q-95 0 -149.5 58.5t-54.5 151.5v312h49v-303q0 -80 43 -127t119 -47t126.5 51.5t50.5 130.5v295h49v-510h-49v95q-61 -107 -184 -107zM277 590l88 133l61 -30l-107 -103h-42z" />
    <glyph glyph-name="ucircumflex" unicode="&#xfb;" horiz-adv-x="618" 
d="M287 -12q-95 0 -149.5 58.5t-54.5 151.5v312h49v-303q0 -80 43 -127t119 -47t126.5 51.5t50.5 130.5v295h49v-510h-49v95q-61 -107 -184 -107zM188 595l100 122h40l100 -122h-47l-74 68l-74 -68h-45z" />
    <glyph glyph-name="udieresis" unicode="&#xfc;" horiz-adv-x="618" 
d="M287 -12q-95 0 -149.5 58.5t-54.5 151.5v312h49v-303q0 -80 43 -127t119 -47t126.5 51.5t50.5 130.5v295h49v-510h-49v95q-61 -107 -184 -107zM355 595v80h69v-80h-69zM192 595v80h69v-80h-69z" />
    <glyph glyph-name="yacute" unicode="&#xfd;" horiz-adv-x="594" 
d="M155 -163q-51 0 -101 22l17 43q39 -19 87 -19q40 0 69 27t57 93l-245 507h57l212 -456l184 456h54l-221 -528q-33 -78 -73.5 -111.5t-96.5 -33.5zM281 590l88 133l61 -30l-107 -103h-42z" />
    <glyph glyph-name="thorn" unicode="&#xfe;" horiz-adv-x="667" 
d="M93 -160v890h49v-334q83 126 210 126q98 0 173 -73t75 -192v-2q0 -119 -75 -193t-173 -74q-130 0 -210 122v-270h-49zM347 35q86 0 143 59t57 159v2q0 98 -58.5 159t-141.5 61t-145.5 -62.5t-62.5 -156.5v-2q0 -95 62.5 -157t145.5 -62z" />
    <glyph glyph-name="ydieresis" unicode="&#xff;" horiz-adv-x="594" 
d="M155 -163q-51 0 -101 22l17 43q39 -19 87 -19q40 0 69 27t57 93l-245 507h57l212 -456l184 456h54l-221 -528q-33 -78 -73.5 -111.5t-96.5 -33.5zM341 595v80h69v-80h-69zM178 595v80h69v-80h-69z" />
    <glyph glyph-name="dotlessi" unicode="&#x131;" horiz-adv-x="275" 
d="M100 0v510h49v-510h-49z" />
    <glyph glyph-name="Lslash" unicode="&#x141;" horiz-adv-x="649" 
d="M134 0v316l-75 -23v48l75 23v336h51v-320l225 69v-48l-225 -69v-284h412v-48h-463z" />
    <glyph glyph-name="lslash" unicode="&#x142;" horiz-adv-x="335" 
d="M130 0v336l-76 -24v50l76 23v345h49v-330l76 24v-50l-76 -24v-350h-49z" />
    <glyph glyph-name="OE" unicode="&#x152;" horiz-adv-x="1113" 
d="M445 0q-163 0 -267.5 99.5t-104.5 248.5v2q0 150 104.5 250t267.5 100h639v-48h-431v-275h386v-48h-386v-281h436v-48h-644zM445 48h156v604h-156q-143 0 -230.5 -86t-87.5 -214v-2q0 -128 87.5 -215t230.5 -87z" />
    <glyph glyph-name="oe" unicode="&#x153;" horiz-adv-x="1044" 
d="M318 -12q-110 0 -185 78t-75 187v2q0 109 75.5 188t186.5 79q79 0 141.5 -43t92.5 -113q28 71 86 113.5t132 42.5q105 0 169 -76t64 -191q0 -12 -1 -20h-423q7 -92 64.5 -146.5t135.5 -54.5q100 0 175 80l34 -30q-89 -96 -209 -96q-75 0 -136.5 42.5t-90.5 114.5
q-30 -70 -93 -113.5t-143 -43.5zM581 279h371q-6 84 -53 141t-130 57q-75 0 -128 -56.5t-60 -141.5zM321 34q90 0 149 64t59 155v2q0 92 -61 156.5t-149 64.5q-90 0 -149 -64t-59 -155v-2q0 -92 61 -156.5t149 -64.5z" />
    <glyph glyph-name="Scaron" unicode="&#x160;" horiz-adv-x="640" 
d="M341 -10q-157 0 -282 112l34 39q59 -55 117 -79.5t134 -24.5q78 0 127.5 39.5t49.5 99.5v2q0 58 -41.5 92t-156.5 57q-126 25 -181 71t-55 126v2q0 78 64 131t161 53q74 0 129.5 -20.5t110.5 -64.5l-33 -41q-91 79 -209 79q-76 0 -123.5 -38t-47.5 -94v-2q0 -59 42.5 -94
t161.5 -59q121 -25 175.5 -70.5t54.5 -122.5v-2q0 -84 -65 -137.5t-167 -53.5zM307 765l-100 122h47l74 -68l74 68h45l-100 -122h-40z" />
    <glyph glyph-name="scaron" unicode="&#x161;" horiz-adv-x="499" 
d="M258 -10q-55 0 -111.5 20.5t-97.5 53.5l29 39q87 -67 183 -67q53 0 88 27t35 70v2q0 41 -34.5 62t-100.5 40q-35 10 -51 15t-45 18t-42.5 25.5t-25 34t-11.5 47.5v2q0 62 47 101.5t121 39.5q97 0 181 -56l-26 -41q-77 51 -157 51q-52 0 -84 -25t-32 -64v-2q0 -16 8.5 -30
t20 -23t33 -18.5t37 -14.5t43.5 -13q38 -11 62 -20t51.5 -25.5t41 -41t13.5 -56.5v-2q0 -67 -50.5 -108t-125.5 -41zM231 595l-100 122h47l74 -68l74 68h45l-100 -122h-40z" />
    <glyph glyph-name="Ydieresis" unicode="&#x178;" horiz-adv-x="716" 
d="M332 0v277l-300 423h65l262 -376l263 376h62l-300 -422v-278h-52zM405 760v80h69v-80h-69zM242 760v80h69v-80h-69z" />
    <glyph glyph-name="Zcaron" unicode="&#x17d;" horiz-adv-x="698" 
d="M68 0v29l479 624h-462v47h536v-29l-479 -624h479v-47h-553zM329 765l-100 122h47l74 -68l74 68h45l-100 -122h-40z" />
    <glyph glyph-name="zcaron" unicode="&#x17e;" horiz-adv-x="558" 
d="M58 0v28l368 438h-354v44h427v-28l-368 -438h368v-44h-441zM266 595l-100 122h47l74 -68l74 68h45l-100 -122h-40z" />
    <glyph glyph-name="florin" unicode="&#x192;" horiz-adv-x="521" 
d="M90 -5q-23 0 -49 4v44q20 -4 46 -4q67 0 82 82l49 263h-109v45h117l26 136q14 74 48.5 107t94.5 33q41 0 75 -10v-44q-40 10 -70 10q-41 0 -63 -23t-32 -76l-25 -133h155v-45h-163l-50 -266q-12 -63 -44 -93t-88 -30z" />
    <glyph glyph-name="circumflex" unicode="&#x2c6;" 
d="M130 595l100 122h40l100 -122h-47l-74 68l-74 -68h-45z" />
    <glyph glyph-name="caron" unicode="&#x2c7;" 
d="M230 595l-100 122h47l74 -68l74 68h45l-100 -122h-40z" />
    <glyph glyph-name="breve" unicode="&#x2d8;" 
d="M250 593q-56 0 -92.5 33t-40.5 91h39q19 -73 94 -73t94 73h39q-4 -58 -40.5 -91t-92.5 -33z" />
    <glyph glyph-name="dotaccent" unicode="&#x2d9;" 
d="M214 595v81h72v-81h-72z" />
    <glyph glyph-name="ring" unicode="&#x2da;" 
d="M250 593q-39 0 -68.5 27.5t-29.5 65.5v2q0 38 29.5 65.5t68.5 27.5t68.5 -27.5t29.5 -65.5v-2q0 -38 -29.5 -65.5t-68.5 -27.5zM250 625q25 0 43.5 18t18.5 43v2q0 25 -18.5 43t-43.5 18t-43.5 -18t-18.5 -43v-2q0 -25 18.5 -43t43.5 -18z" />
    <glyph glyph-name="ogonek" unicode="&#x2db;" 
d="M356 -164q-82 -3 -125.5 27t-43.5 80q0 34 14 67h43q-6 -27 -6 -56q0 -81 118 -87v-31z" />
    <glyph glyph-name="tilde" unicode="&#x2dc;" 
d="M136 586l-34 9q14 52 33.5 72.5t50.5 20.5q19 0 65.5 -20.5t62.5 -20.5q18 0 28.5 10.5t21.5 39.5l34 -9q-14 -52 -33.5 -72.5t-50.5 -20.5q-19 0 -65.5 20.5t-62.5 20.5q-18 0 -28.5 -10.5t-21.5 -39.5z" />
    <glyph glyph-name="hungarumlaut" unicode="&#x2dd;" 
d="M254 595l89 133l55 -29l-101 -104h-43zM102 595l89 133l55 -29l-101 -104h-43z" />
    <glyph glyph-name="uni037E" unicode="&#x37e;" horiz-adv-x="268" 
d="M87 425v85h66v-85h-66zM70 -107l-12 25q33 17 45.5 35.5t10.5 46.5h-27v85h66v-74q0 -47 -19 -74t-64 -44z" />
    <glyph glyph-name="tonos" unicode="&#x384;" 
d="M194 595l88 133l61 -30l-107 -103h-42z" />
    <glyph glyph-name="dieresistonos" unicode="&#x385;" 
d="M114 595v73h62v-73h-62zM214 595l47 135l54 -15l-64 -120h-37zM325 595v73h62v-73h-62z" />
    <glyph glyph-name="Alphatonos" unicode="&#x386;" horiz-adv-x="790" 
d="M44 0l326 705h50l326 -705h-57l-89 196h-413l-89 -196h-54zM209 243h369l-184 405zM34 562l88 133l61 -30l-107 -103h-42z" />
    <glyph glyph-name="anoteleia" unicode="&#x387;" horiz-adv-x="244" 
d="M70 430v79h63v-79h-63z" />
    <glyph glyph-name="Epsilontonos" unicode="&#x388;" horiz-adv-x="670" 
d="M-151 562l88 133l61 -30l-107 -103h-42zM104 0v700h498v-48h-446v-275h401v-48h-401v-281h451v-48h-503z" />
    <glyph glyph-name="Etatonos" unicode="&#x389;" horiz-adv-x="760" 
d="M104 0v700h52v-324h448v324h52v-700h-52v328h-448v-328h-52zM-151 562l88 133l61 -30l-107 -103h-42z" />
    <glyph glyph-name="Iotatonos" unicode="&#x38a;" horiz-adv-x="305" 
d="M111 0v700h52v-700h-52zM-151 562l88 133l61 -30l-107 -103h-42z" />
    <glyph glyph-name="Omicrontonos" unicode="&#x38c;" horiz-adv-x="850" 
d="M-76 563l88 133l61 -30l-107 -103h-42zM424 -12q-155 0 -253 106t-98 254v2q0 148 99 255t254 107t253 -106t98 -254q1 -1 0 -2q0 -148 -99 -255t-254 -107zM426 35q128 0 212.5 91t84.5 222v2q0 131 -85.5 223t-213.5 92t-212.5 -91t-84.5 -222v-2q0 -131 85.5 -223
t213.5 -92z" />
    <glyph glyph-name="Upsilontonos" unicode="&#x38e;" horiz-adv-x="716" 
d="M-176 562l88 133l61 -30l-107 -103h-42zM332 0v277l-300 423h65l262 -376l263 376h62l-300 -422v-278h-52z" />
    <glyph glyph-name="Omegatonos" unicode="&#x38f;" horiz-adv-x="849" 
d="M-75 562l88 133l61 -30l-107 -103h-42zM488 0v45q107 28 170.5 117.5t63.5 200.5q0 127 -81 214.5t-217 87.5t-216.5 -87.5t-80.5 -214.5q0 -112 64.5 -202t172.5 -117v-44h-274v48h171q-82 37 -135 121.5t-53 193.5q0 149 97 249t254 100q158 0 255 -99.5t97 -249.5
q0 -106 -51.5 -190.5t-134.5 -124.5h171v-48h-273z" />
    <glyph glyph-name="iotadieresistonos" unicode="&#x390;" horiz-adv-x="275" 
d="M100 0v510h49v-510h-49zM17 595v73h62v-73h-62zM117 595l47 135l54 -15l-64 -120h-37zM228 595v73h62v-73h-62z" />
    <glyph glyph-name="Alpha" unicode="&#x391;" horiz-adv-x="790" 
d="M44 0l326 705h50l326 -705h-57l-89 196h-413l-89 -196h-54zM209 243h369l-184 405z" />
    <glyph glyph-name="Beta" unicode="&#x392;" horiz-adv-x="722" 
d="M104 0v700h289q120 0 182 -62q45 -45 45 -110v-2q0 -118 -119 -166q158 -41 158 -167v-2q0 -87 -68.5 -139t-182.5 -52h-304zM156 377h231q81 0 130.5 38t49.5 106v2q0 59 -46 94t-129 35h-236v-275zM156 48h254q90 0 143 38.5t53 104.5v2q0 65 -55 100.5t-158 35.5h-237
v-281z" />
    <glyph glyph-name="Gamma" unicode="&#x393;" horiz-adv-x="621" 
d="M104 0v700h463v-48h-411v-652h-52z" />
    <glyph glyph-name="uni0394" unicode="&#x394;" horiz-adv-x="780" 
d="M667 48l-273 600l-274 -600h547zM44 0l326 705h50l326 -705h-702z" />
    <glyph glyph-name="Epsilon" unicode="&#x395;" horiz-adv-x="670" 
d="M104 0v700h498v-48h-446v-275h401v-48h-401v-281h451v-48h-503z" />
    <glyph glyph-name="Zeta" unicode="&#x396;" horiz-adv-x="698" 
d="M68 0v29l479 624h-462v47h536v-29l-479 -624h479v-47h-553z" />
    <glyph glyph-name="Eta" unicode="&#x397;" horiz-adv-x="760" 
d="M104 0v700h52v-324h448v324h52v-700h-52v328h-448v-328h-52z" />
    <glyph glyph-name="Theta" unicode="&#x398;" horiz-adv-x="850" 
d="M777 350q0 -148 -99 -255t-254 -107t-253 106t-98 254v2q0 148 99 255t254 107t253 -106t98 -254q1 -1 0 -2zM723 348v2q0 131 -85.5 223t-213.5 92t-212.5 -91t-84.5 -222v-2q0 -131 85.5 -223t213.5 -92t212.5 91t84.5 222zM631 328h-412v51h412v-51z" />
    <glyph glyph-name="Iota" unicode="&#x399;" horiz-adv-x="305" 
d="M111 0v700h52v-700h-52z" />
    <glyph glyph-name="Kappa" unicode="&#x39a;" horiz-adv-x="722" 
d="M104 0v700h52v-460l446 460h71l-306 -309l319 -391h-68l-288 354l-174 -176v-178h-52z" />
    <glyph glyph-name="Lambda" unicode="&#x39b;" horiz-adv-x="763" 
d="M382 645l-275 -645h-54l305 705h50l305 -705h-57z" />
    <glyph glyph-name="Mu" unicode="&#x39c;" horiz-adv-x="868" 
d="M104 0v700h49l281 -414l281 414h49v-700h-52v608l-277 -403h-4l-277 403v-608h-50z" />
    <glyph glyph-name="Nu" unicode="&#x39d;" horiz-adv-x="790" 
d="M104 0v700h49l483 -609v609h50v-700h-39l-493 622v-622h-50z" />
    <glyph glyph-name="Xi" unicode="&#x39e;" horiz-adv-x="700" 
d="M104 328v55h487v-55h-487zM70 646v54h555v-54h-555zM65 0v54h565v-54h-565z" />
    <glyph glyph-name="Omicron" unicode="&#x39f;" horiz-adv-x="850" 
d="M424 -12q-155 0 -253 106t-98 254v2q0 148 99 255t254 107t253 -106t98 -254q1 -1 0 -2q0 -148 -99 -255t-254 -107zM426 35q128 0 212.5 91t84.5 222v2q0 131 -85.5 223t-213.5 92t-212.5 -91t-84.5 -222v-2q0 -131 85.5 -223t213.5 -92z" />
    <glyph glyph-name="Pi" unicode="&#x3a0;" horiz-adv-x="750" 
d="M104 0v700h544v-700h-52v652h-440v-652h-52z" />
    <glyph glyph-name="Rho" unicode="&#x3a1;" horiz-adv-x="668" 
d="M104 0v700h254q117 0 188.5 -57t71.5 -157v-2q0 -106 -78.5 -164.5t-194.5 -58.5h-189v-261h-52zM156 309h192q98 0 158 47t60 125v2q0 81 -57.5 125t-154.5 44h-198v-343z" />
    <glyph glyph-name="Sigma" unicode="&#x3a3;" horiz-adv-x="684" 
d="M85 664v36h523v-47h-449l253 -286l-270 -319h475v-48h-549v30l281 332z" />
    <glyph glyph-name="Tau" unicode="&#x3a4;" horiz-adv-x="648" 
d="M298 0v652h-244v48h540v-48h-244v-652h-52z" />
    <glyph glyph-name="Upsilon" unicode="&#x3a5;" horiz-adv-x="716" 
d="M332 0v277l-300 423h65l262 -376l263 376h62l-300 -422v-278h-52z" />
    <glyph glyph-name="Phi" unicode="&#x3a6;" horiz-adv-x="901" 
d="M422 109v495q-139 -5 -221 -70t-82 -178v-2q0 -111 82.5 -175t220.5 -70zM474 604v-495q139 5 221 67.5t82 175.5v2q0 111 -83 177.5t-220 72.5zM474 647q159 -7 257.5 -83.5t98.5 -208.5q4 0 0 -2q0 -131 -98.5 -205.5t-257.5 -81.5v-66h-52v66q-160 7 -258.5 81
t-98.5 205v2q0 132 99 208.5t258 83.5v54h52v-53z" />
    <glyph glyph-name="Chi" unicode="&#x3a7;" horiz-adv-x="727" 
d="M51 0l279 357l-269 343h62l239 -308l238 308h61l-268 -342l278 -358h-62l-249 323l-248 -323h-61z" />
    <glyph glyph-name="Psi" unicode="&#x3a8;" horiz-adv-x="831" 
d="M738 700v-266q0 -144 -84.5 -221.5t-216.5 -81.5v-131h-52v131q-131 4 -215.5 81.5t-84.5 221.5v266h52v-264q0 -122 69.5 -188.5t178.5 -70.5v523h52v-523q111 4 180 70t69 189v264h52z" />
    <glyph glyph-name="uni03A9" unicode="&#x3a9;" horiz-adv-x="849" 
d="M488 0v45q107 28 170.5 117.5t63.5 200.5q0 127 -81 214.5t-217 87.5t-216.5 -87.5t-80.5 -214.5q0 -112 64.5 -202t172.5 -117v-44h-274v48h171q-82 37 -135 121.5t-53 193.5q0 149 97 249t254 100q158 0 255 -99.5t97 -249.5q0 -106 -51.5 -190.5t-134.5 -124.5h171
v-48h-273z" />
    <glyph glyph-name="Iotadieresis" unicode="&#x3aa;" horiz-adv-x="305" 
d="M111 0v700h52v-700h-52zM200 760v80h69v-80h-69zM37 760v80h69v-80h-69z" />
    <glyph glyph-name="Upsilondieresis" unicode="&#x3ab;" horiz-adv-x="716" 
d="M332 0v277l-300 423h65l262 -376l263 376h62l-300 -422v-278h-52zM405 757v80h69v-80h-69zM242 757v80h69v-80h-69z" />
    <glyph glyph-name="alphatonos" unicode="&#x3ac;" horiz-adv-x="667" 
d="M518 0v114q-83 -126 -210 -126q-98 0 -173 73t-75 192v2q0 119 75 193t173 74q130 0 210 -122v110h49v-510h-49zM313 35q83 0 145.5 62.5t62.5 156.5v2q0 95 -62.5 157t-145.5 62q-86 0 -143 -59t-57 -159v-2q0 -98 58.5 -159t141.5 -61zM304 595l88 133l61 -30
l-107 -103h-42z" />
    <glyph glyph-name="epsilontonos" unicode="&#x3ad;" horiz-adv-x="572" 
d="M279 595l88 133l61 -30l-107 -103h-42zM200 270v2q-56 8 -87.5 40t-31.5 69q0 69 62 105t155 36q123 0 213 -76q-14 -16 -32 -34q-79 66 -183 66q-71 0 -116 -24t-45 -75q0 -35 38 -61.5t109 -26.5h104v-44h-109q-73 0 -119.5 -28.5t-46.5 -79.5q0 -108 185 -108
q115 0 199 81l29 -31q-101 -94 -229 -94q-237 0 -237 150q0 51 41 86.5t101 46.5z" />
    <glyph glyph-name="etatonos" unicode="&#x3ae;" horiz-adv-x="618" 
d="M93 0v510h49v-95q61 107 184 107q95 0 149.5 -58.5t54.5 -151.5v-312h-49v303q0 80 -43 127t-119 47t-126.5 -51.5t-50.5 -130.5v-295h-49zM299 595l88 133l61 -30l-107 -103h-42z" />
    <glyph glyph-name="iotatonos" unicode="&#x3af;" horiz-adv-x="275" 
d="M100 0v510h49v-510h-49zM122 595l88 133l61 -30l-107 -103h-42z" />
    <glyph glyph-name="upsilondieresistonos" unicode="&#x3b0;" horiz-adv-x="603" 
d="M514 510v-294q0 -104 -55 -166t-161 -62q-105 0 -160 61t-55 165v296h49v-285q0 -88 40.5 -139.5t125.5 -51.5t126 51.5t41 139.5v285h49zM171 595v73h62v-73h-62zM271 595l47 135l54 -15l-64 -120h-37zM382 595v73h62v-73h-62z" />
    <glyph glyph-name="alpha" unicode="&#x3b1;" horiz-adv-x="667" 
d="M518 0v114q-83 -126 -210 -126q-98 0 -173 73t-75 192v2q0 119 75 193t173 74q130 0 210 -122v110h49v-510h-49zM313 35q83 0 145.5 62.5t62.5 156.5v2q0 95 -62.5 157t-145.5 62q-86 0 -143 -59t-57 -159v-2q0 -98 58.5 -159t141.5 -61z" />
    <glyph glyph-name="beta" unicode="&#x3b2;" horiz-adv-x="666" 
d="M142 504v-243q0 -33 8 -67q20 -75 78 -118.5t126 -43.5q92 0 142.5 45.5t50.5 125.5q0 94 -53 138t-136 44h-79v43h83q54 0 93.5 41t39.5 95q0 60 -43 95t-124 35q-84 0 -135 -47t-51 -143zM433 411q167 -37 167 -206q0 -92 -63 -154.5t-175 -62.5q-75 0 -132.5 35.5
t-87.5 90.5v-274h-49v663q0 111 63 172.5t175 61.5q102 0 159.5 -47t57.5 -123q0 -53 -31 -97t-84 -59z" />
    <glyph glyph-name="gamma" unicode="&#x3b3;" horiz-adv-x="591" 
d="M267 1l-226 509h57l193 -456l195 456h55l-225 -507v-163h-49v161z" />
    <glyph glyph-name="delta" unicode="&#x3b4;" horiz-adv-x="649" 
d="M317 34q94 0 150 59t56 149q0 87 -58 149t-149 62q-92 0 -148.5 -60t-56.5 -149t59 -149.5t147 -60.5zM185 686l295 -244q40 -32 68 -85t28 -113q0 -110 -72.5 -183t-187.5 -73q-109 0 -183.5 74t-74.5 182q0 104 72 176t182 72q18 0 38 -3l-237 194v47h396v-44h-324z
" />
    <glyph glyph-name="epsilon" unicode="&#x3b5;" horiz-adv-x="572" 
d="M200 270v2q-56 8 -87.5 40t-31.5 69q0 69 62 105t155 36q123 0 213 -76q-14 -16 -32 -34q-79 66 -183 66q-71 0 -116 -24t-45 -75q0 -35 38 -61.5t109 -26.5h104v-44h-109q-73 0 -119.5 -28.5t-46.5 -79.5q0 -108 185 -108q115 0 199 81l29 -31q-101 -94 -229 -94
q-237 0 -237 150q0 51 41 86.5t101 46.5z" />
    <glyph glyph-name="zeta" unicode="&#x3b6;" horiz-adv-x="513" 
d="M424 -50q0 38 -28 48t-128 12q-210 5 -210 173q0 194 365 499h-322v48h386v-43q-68 -59 -109 -96.5t-98.5 -97t-89.5 -105t-55.5 -101.5t-23.5 -106q5 -75 45.5 -99t141.5 -27q41 -1 66 -4t54 -12t43 -27.5t14 -47.5q0 -27 -25 -124h-48q22 81 22 110z" />
    <glyph glyph-name="eta" unicode="&#x3b7;" horiz-adv-x="618" 
d="M93 0v510h49v-95q61 107 184 107q95 0 149.5 -58.5t54.5 -151.5v-312h-49v303q0 80 -43 127t-119 47t-126.5 -51.5t-50.5 -130.5v-295h-49z" />
    <glyph glyph-name="theta" unicode="&#x3b8;" horiz-adv-x="642" 
d="M563 363q0 -163 -63.5 -269t-184.5 -106q-82 0 -139 51.5t-82.5 133t-25.5 186.5v4q0 162 63.5 268t184.5 106q122 0 184.5 -105t62.5 -269zM511 394q-6 133 -55 217t-141 84q-93 0 -141.5 -84t-54.5 -217h392zM119 350q2 -141 51.5 -229.5t145.5 -88.5q65 0 110 44.5
t64.5 114t20.5 159.5h-392z" />
    <glyph glyph-name="iota" unicode="&#x3b9;" horiz-adv-x="275" 
d="M100 0v510h49v-510h-49z" />
    <glyph glyph-name="kappa" unicode="&#x3ba;" horiz-adv-x="576" 
d="M93 0v510h49v-327l316 327h65l-223 -226l230 -284h-62l-202 249l-124 -125v-124h-49z" />
    <glyph glyph-name="lambda" unicode="&#x3bb;" horiz-adv-x="580" 
d="M272 509l-46 104q-36 81 -79 81q-21 0 -44 -5v44q19 4 43 4q77 0 116 -92l274 -645h-54l-187 455l-204 -455h-52z" />
    <glyph glyph-name="uni03BC" unicode="&#x3bc;" horiz-adv-x="625" 
d="M142 -160h-49v670h49v-295q0 -70 46.5 -126t120.5 -56q71 0 121.5 52t50.5 130v295h49v-510h-49v95q-27 -48 -71.5 -77.5t-98.5 -29.5q-59 0 -104 32t-65 71v-251z" />
    <glyph glyph-name="nu" unicode="&#x3bd;" horiz-adv-x="591" 
d="M270 -4l-229 514h57l193 -455l195 455h55l-229 -514h-42z" />
    <glyph glyph-name="xi" unicode="&#x3be;" horiz-adv-x="537" 
d="M452 394h-101q-124 0 -182 -48t-58 -130q0 -72 42.5 -110t141.5 -51q21 -3 30.5 -4.5t31.5 -5t34 -7t30.5 -9t29.5 -12.5t22 -16t16 -20.5t5 -24.5q0 -36 -21 -116h-48q20 86 20 102q0 12 -4.5 21t-16 15.5t-21.5 11t-29.5 8.5t-32 6t-37.5 5t-37 5q-115 17 -162 68
t-47 133q0 68 48 127.5t146 72.5q-72 15 -104 55.5t-32 80.5q0 49 31 86t94 53h-147v40h411v-43h-83q-134 0 -193 -37.5t-59 -96.5q0 -61 55 -89t128 -28h99v-42z" />
    <glyph glyph-name="omicron" unicode="&#x3bf;" horiz-adv-x="652" 
d="M319 -12q-112 0 -186.5 78t-74.5 187v2q0 109 75.5 188t187.5 79t186.5 -78t74.5 -187v-2q0 -109 -75.5 -188t-187.5 -79zM321 34q90 0 149 64t59 155v2q0 92 -61 156.5t-149 64.5q-90 0 -149 -64t-59 -155v-2q0 -92 61 -156.5t149 -64.5z" />
    <glyph glyph-name="pi" unicode="&#x3c0;" horiz-adv-x="613" 
d="M93 0v510h423v-510h-49v466h-325v-466h-49z" />
    <glyph glyph-name="rho" unicode="&#x3c1;" horiz-adv-x="642" 
d="M322 35q86 0 143 59.5t57 160.5q0 100 -56 162t-144 62t-146.5 -63.5t-58.5 -161.5q0 -95 61.5 -157t143.5 -62zM117 110v-270h-49v413q0 121 71 195t187 74q105 0 177 -72t72 -193q0 -120 -75 -194.5t-173 -74.5q-139 0 -210 122z" />
    <glyph glyph-name="uni03C2" unicode="&#x3c2;" horiz-adv-x="568" 
d="M363 50q93 -17 93 -92q0 -15 -2 -30.5t-4 -25t-7.5 -31t-7.5 -31.5h-49q19 83 19 107q0 51 -71 64q-147 25 -211.5 84.5t-64.5 174.5q0 111 74.5 181.5t183.5 70.5q118 0 204 -95l-36 -35q-40 41 -78 62.5t-91 21.5q-87 0 -145.5 -57t-58.5 -147q0 -99 55 -147.5
t197 -74.5z" />
    <glyph glyph-name="sigma" unicode="&#x3c3;" horiz-adv-x="674" 
d="M323 34q92 0 147 63.5t55 156.5q0 91 -56 151t-148 60q-94 0 -152 -60.5t-58 -152.5t60 -155t152 -63zM608 510v-45h-166q66 -26 101.5 -82.5t35.5 -127.5q0 -111 -71 -189t-186 -78q-114 0 -189 77.5t-75 186.5q0 108 74.5 183t189.5 75h286z" />
    <glyph glyph-name="tau" unicode="&#x3c4;" horiz-adv-x="474" 
d="M202 0v465h-174v45h397v-45h-174v-465h-49z" />
    <glyph glyph-name="upsilon" unicode="&#x3c5;" horiz-adv-x="603" 
d="M514 510v-294q0 -104 -55 -166t-161 -62q-105 0 -160 61t-55 165v296h49v-285q0 -88 40.5 -139.5t125.5 -51.5t126 51.5t41 139.5v285h49z" />
    <glyph glyph-name="phi" unicode="&#x3c6;" horiz-adv-x="786" 
d="M405 31q247 12 247 224q0 213 -247 224v-448zM356 -11q-298 12 -298 265q0 199 212 256l11 -40q-170 -44 -170 -217q0 -105 60 -160t185 -61v489q6 1 36 1q148 0 230.5 -70t82.5 -198q0 -122 -75.5 -190.5t-224.5 -74.5v-149h-49v149z" />
    <glyph glyph-name="chi" unicode="&#x3c7;" horiz-adv-x="577" 
d="M45 0l209 260l-201 250h61l172 -216l172 216h59l-201 -249l209 -261h-61l-180 227l-180 -227h-59z" />
    <glyph glyph-name="psi" unicode="&#x3c8;" horiz-adv-x="760" 
d="M663 222q0 -100 -71 -166t-195 -68v-148h-49v148q-125 3 -195 67.5t-70 165.5v289h49v-280q0 -87 58 -141.5t158 -57.5v642h49v-642q100 2 158 55.5t58 140.5v283h50v-288z" />
    <glyph glyph-name="omega" unicode="&#x3c9;" horiz-adv-x="828" 
d="M753 242q0 -123 -51.5 -188.5t-142.5 -65.5q-108 0 -154 118q-43 -118 -154 -118q-93 0 -143 64.5t-50 188.5q0 121 63 199t149 82v-47q-76 -9 -117.5 -78.5t-41.5 -156.5q0 -102 36 -154.5t104 -52.5q54 0 91.5 40.5t37.5 127.5v171h50v-171q0 -86 38 -127t91 -41
q141 0 141 207q0 87 -41.5 156.5t-118.5 78.5v47q88 -5 150.5 -82t62.5 -198z" />
    <glyph glyph-name="iotadieresis" unicode="&#x3ca;" horiz-adv-x="275" 
d="M100 0v510h49v-510h-49zM11 595v80h69v-80h-69zM174 595v80h69v-80h-69z" />
    <glyph glyph-name="upsilondieresis" unicode="&#x3cb;" horiz-adv-x="603" 
d="M514 510v-294q0 -104 -55 -166t-161 -62q-105 0 -160 61t-55 165v296h49v-285q0 -88 40.5 -139.5t125.5 -51.5t126 51.5t41 139.5v285h49zM346 595v80h69v-80h-69zM183 595v80h69v-80h-69z" />
    <glyph glyph-name="omicrontonos" unicode="&#x3cc;" horiz-adv-x="652" 
d="M309 595l88 133l61 -30l-107 -103h-42zM319 -12q-112 0 -186.5 78t-74.5 187v2q0 109 75.5 188t187.5 79t186.5 -78t74.5 -187v-2q0 -109 -75.5 -188t-187.5 -79zM321 34q90 0 149 64t59 155v2q0 92 -61 156.5t-149 64.5q-90 0 -149 -64t-59 -155v-2q0 -92 61 -156.5
t149 -64.5z" />
    <glyph glyph-name="upsilontonos" unicode="&#x3cd;" horiz-adv-x="603" 
d="M277 595l88 133l61 -30l-107 -103h-42zM514 510v-294q0 -104 -55 -166t-161 -62q-105 0 -160 61t-55 165v296h49v-285q0 -88 40.5 -139.5t125.5 -51.5t126 51.5t41 139.5v285h49z" />
    <glyph glyph-name="omegatonos" unicode="&#x3ce;" horiz-adv-x="828" 
d="M753 242q0 -123 -51.5 -188.5t-142.5 -65.5q-108 0 -154 118q-43 -118 -154 -118q-93 0 -143 64.5t-50 188.5q0 121 63 199t149 82v-47q-76 -9 -117.5 -78.5t-41.5 -156.5q0 -102 36 -154.5t104 -52.5q54 0 91.5 40.5t37.5 127.5v171h50v-171q0 -86 38 -127t91 -41
q141 0 141 207q0 87 -41.5 156.5t-118.5 78.5v47q88 -5 150.5 -82t62.5 -198zM398 595l88 133l61 -30l-107 -103h-42z" />
    <glyph glyph-name="endash" unicode="&#x2013;" horiz-adv-x="528" 
d="M70 271v52h388v-52h-388z" />
    <glyph glyph-name="emdash" unicode="&#x2014;" horiz-adv-x="898" 
d="M70 271v52h758v-52h-758z" />
    <glyph glyph-name="quoteleft" unicode="&#x2018;" horiz-adv-x="258" 
d="M77 513v74q0 47 19 74t64 44l12 -25q-33 -17 -45.5 -35.5t-10.5 -46.5h27v-85h-66z" />
    <glyph glyph-name="quoteright" unicode="&#x2019;" horiz-adv-x="258" 
d="M70 508l-12 25q33 17 45.5 35.5t10.5 46.5h-27v85h66v-74q0 -47 -19 -74t-64 -44z" />
    <glyph glyph-name="quotesinglbase" unicode="&#x201a;" horiz-adv-x="258" 
d="M65 -107l-12 25q33 17 45.5 35.5t10.5 46.5h-27v85h66v-74q0 -47 -19 -74t-64 -44z" />
    <glyph glyph-name="quotedblleft" unicode="&#x201c;" horiz-adv-x="475" 
d="M77 513v74q0 47 19 74t64 44l12 -25q-33 -17 -45.5 -35.5t-10.5 -46.5h27v-85h-66zM257 513v74q0 47 19 74t64 44l12 -25q-33 -17 -45.5 -35.5t-10.5 -46.5h27v-85h-66z" />
    <glyph glyph-name="quotedblright" unicode="&#x201d;" horiz-adv-x="475" 
d="M70 508l-12 25q33 17 45.5 35.5t10.5 46.5h-27v85h66v-74q0 -47 -19 -74t-64 -44zM250 508l-12 25q33 17 45.5 35.5t10.5 46.5h-27v85h66v-74q0 -47 -19 -74t-64 -44z" />
    <glyph glyph-name="quotedblbase" unicode="&#x201e;" horiz-adv-x="475" 
d="M245 -107l-12 25q33 17 45.5 35.5t10.5 46.5h-27v85h66v-74q0 -47 -19 -74t-64 -44zM65 -107l-12 25q33 17 45.5 35.5t10.5 46.5h-27v85h66v-74q0 -47 -19 -74t-64 -44z" />
    <glyph glyph-name="dagger" unicode="&#x2020;" horiz-adv-x="410" 
d="M183 238l5 286l-125 -7v45l124 -7l-7 145h50l-7 -145l124 7v-45l-125 7l5 -286h-44z" />
    <glyph glyph-name="daggerdbl" unicode="&#x2021;" horiz-adv-x="430" 
d="M190 0l7 145l-124 -7v45l125 -7l-5 174l5 174l-125 -7v45l124 -7l-7 145h50l-7 -145l124 7v-45l-125 7l5 -174l-5 -174l125 7v-45l-124 7l7 -145h-50z" />
    <glyph glyph-name="bullet" unicode="&#x2022;" horiz-adv-x="485" 
d="M235 228q-51 0 -87.5 36t-36.5 87v2q0 50 37.5 86.5t86.5 36.5t86.5 -36.5t37.5 -86.5v-2q0 -51 -36.5 -87t-87.5 -36z" />
    <glyph glyph-name="ellipsis" unicode="&#x2026;" horiz-adv-x="760" 
d="M534 0v83h64v-83h-64zM308 0v83h64v-83h-64zM82 0v83h64v-83h-64z" />
    <glyph glyph-name="perthousand" unicode="&#x2030;" horiz-adv-x="1220" 
d="M208 350q-67 0 -110 52.5t-43 124.5v2q0 73 43.5 126t111.5 53q67 0 110 -52.5t43 -124.5v-2q0 -73 -43.5 -126t-111.5 -53zM128 0l514 700h54l-514 -700h-54zM990 -8q-67 0 -110 52.5t-43 124.5v2q0 73 43.5 126t111.5 53q67 0 110 -52.5t43 -124.5v-2q0 -73 -43.5 -126
t-111.5 -53zM614 -8q-67 0 -110 52.5t-43 124.5v2q0 73 43.5 126t111.5 53q67 0 110 -52.5t43 -124.5v-2q0 -73 -43.5 -126t-111.5 -53zM210 393q44 0 72.5 38.5t28.5 95.5v2q0 58 -30 97t-73 39q-44 0 -72.5 -39t-28.5 -95v-2q0 -58 30 -97t73 -39zM992 35q44 0 72.5 38.5
t28.5 95.5v2q0 58 -30 97t-73 39q-44 0 -72.5 -39t-28.5 -95v-2q0 -58 30 -97t73 -39zM616 35q44 0 72.5 38.5t28.5 95.5v2q0 58 -30 97t-73 39q-44 0 -72.5 -39t-28.5 -95v-2q0 -58 30 -97t73 -39z" />
    <glyph glyph-name="guilsinglleft" unicode="&#x2039;" horiz-adv-x="342" 
d="M211 42l-160 209v8l160 209l37 -24l-137 -188l137 -190z" />
    <glyph glyph-name="guilsinglright" unicode="&#x203a;" horiz-adv-x="342" 
d="M100 42l-37 24l137 188l-137 190l37 24l160 -209v-8z" />
    <glyph glyph-name="fraction" unicode="&#x2044;" horiz-adv-x="445" 
d="M-67 -98l468 856h54l-468 -856h-54z" />
    <glyph glyph-name="Euro" unicode="&#x20ac;" horiz-adv-x="720" 
d="M428 -12q-102 0 -177.5 70.5t-101.5 186.5h-90v48h83q-3 27 -3 55v2q0 34 5 66h-85v48h94q28 110 100.5 179t167.5 69q147 0 240 -140l-40 -27q-43 63 -88.5 92t-113.5 29q-74 0 -132 -56t-83 -146h284v-48h-293q-5 -30 -5 -64v-2q0 -28 3 -57h295v-48h-286
q24 -95 85 -153t144 -58q111 0 194 128l38 -25q-97 -149 -235 -149z" />
    <glyph glyph-name="uni2117" unicode="&#x2117;" horiz-adv-x="830" 
d="M414 -12q-151 0 -256 105.5t-105 254.5v2q0 148 105.5 255t257.5 107q151 0 256 -105.5t105 -254.5v-2q0 -148 -105.5 -255t-257.5 -107zM414 16q141 0 237 98t96 236v2q0 139 -95 235.5t-236 96.5t-237 -98t-96 -236v-2q0 -139 95 -235.5t236 -96.5zM296 175v366h141
q66 0 104.5 -30t38.5 -85v-2q0 -58 -43 -89.5t-107 -31.5h-90v-128h-44zM340 344h91q49 0 76.5 20t27.5 58v2q0 76 -101 76h-94v-156z" />
    <glyph glyph-name="trademark" unicode="&#x2122;" horiz-adv-x="681" 
d="M328 392v308h30l119 -178l120 178h30v-308h-29v257l-120 -175h-3l-118 175v-257h-29zM126 392v279h-105v29h239v-29h-105v-279h-29z" />
    <glyph glyph-name="Omega" unicode="&#x2126;" horiz-adv-x="849" 
d="M488 0v45q107 28 170.5 117.5t63.5 200.5q0 127 -81 214.5t-217 87.5t-216.5 -87.5t-80.5 -214.5q0 -112 64.5 -202t172.5 -117v-44h-274v48h171q-82 37 -135 121.5t-53 193.5q0 149 97 249t254 100q158 0 255 -99.5t97 -249.5q0 -106 -51.5 -190.5t-134.5 -124.5h171
v-48h-273z" />
    <glyph glyph-name="Delta" unicode="&#x2206;" horiz-adv-x="780" 
d="M667 48l-273 600l-274 -600h547zM44 0l326 705h50l326 -705h-702z" />
    <glyph glyph-name="f_f" unicode="&#xfb00;" horiz-adv-x="744" 
d="M123 0v465h-74v45h74v50q0 88 45 133q40 40 107 40q41 0 76 -12v-46q-42 13 -76 13q-103 0 -103 -129v-49h178v-45h-178v-465h-49zM485 0v465h-74v45h74v50q0 88 45 133q40 40 107 40q41 0 76 -12v-46q-42 13 -76 13q-103 0 -103 -129v-49h178v-45h-178v-465h-49z" />
    <glyph glyph-name="f_f_i" unicode="&#xfb03;" horiz-adv-x="1019" 
d="M818 643v67h61v-67h-61zM485 0v465h-74v45h74v50q0 88 45 133q40 40 107 40q41 0 76 -12v-46q-42 13 -76 13q-103 0 -103 -129v-49h178v-45h-178v-465h-49zM123 0v465h-74v45h74v50q0 88 45 133q40 40 107 40q41 0 76 -12v-46q-42 13 -76 13q-103 0 -103 -129v-49h178
v-45h-178v-465h-49zM824 0v510h49v-510h-49z" />
    <glyph glyph-name="f_f_l" unicode="&#xfb04;" horiz-adv-x="1019" 
d="M123 0v465h-74v45h74v50q0 88 45 133q40 40 107 40q41 0 76 -12v-46q-42 13 -76 13q-103 0 -103 -129v-49h178v-45h-178v-465h-49zM485 0v465h-74v45h74v50q0 88 45 133q40 40 107 40q41 0 76 -12v-46q-42 13 -76 13q-103 0 -103 -129v-49h178v-45h-178v-465h-49zM824 0
v730h49v-730h-49z" />
    <glyph glyph-name="apple" horiz-adv-x="967" 
d="M868 0h-767v750h767v-750zM859 -104h-6l-3 20l-10 -21h-2l-10 21l-3 -20h-6l6 34h1l13 -26l13 26h1zM806 -87q0 -18 -17 -18q-7 0 -12 5t-5 12q0 18 18 18q7 0 11.5 -5t4.5 -12zM758 -96l-1 -6q-3 -3 -10 -3q-18 0 -18 17q0 8 5.5 13t12.5 5t11 -3l-2 -5q-3 3 -9 3
q-12 0 -12 -12q0 -13 13 -13q4 0 10 4zM702 -71l-13 -19v-14h-6v14l-14 19l6 1l11 -15l9 14h7zM656 -104h-6v15h-16v-15h-6v33h6v-13h16v13h6v-33zM612 -82q0 -12 -17 -12v-10h-6v33q23 3 23 -11zM576 -104h-6l-4 8h-14l-3 -8h-6l15 34h2zM534 -104h-7l-8 11h-5v-11h-6v33
q23 3 23 -10q0 -7 -7 -10zM491 -101q-6 -4 -13 -4q-18 0 -18 17q0 8 5.5 13t13.5 5q6 0 12 -4l-2 -5q-4 4 -11 4q-12 0 -12 -13q0 -12 13 -12q2 0 6 2v7h-9v5h15v-15zM447 -87q0 -18 -17 -18q-7 0 -12 5t-5 12q0 18 18 18q7 0 11.5 -5t4.5 -12zM400 -82q0 -12 -17 -12v-10
h-6v33q23 3 23 -11zM364 -71l-13 -19v-14h-6v14l-14 19l6 1l11 -15l9 14h7zM323 -71v-5h-12v-28h-6v28h-12v5h30zM267 -71l-12 -34h-1l-11 23l-10 -23h-1l-12 34l6 1l7 -23l10 23h1l10 -23l7 22h6zM211 -71l-12 -34h-1l-11 23l-10 -23h-1l-12 34l6 1l7 -23l10 23h1l10 -23
l7 22h6zM155 -71l-12 -34h-1l-11 23l-10 -23h-1l-12 34l6 1l7 -23l10 23h1l10 -23l7 22h6zM716 -101q0 -4 -4 -4t-4 4t4 4t4 -4zM284 -101q0 -4 -4 -4t-4 4t4 4t4 -4zM559 686q0 8 -1 12q-2 -1 -17 -1t-18 1l-1 -12h2q4 9 10 9q3 0 3 -3v-23q-1 -5 -5 -5v-2h17v2l-4 2
q-1 1 -1 3v23q0 3 3 3t5.5 -2.5t3.5 -4.5l1 -2h2zM504 662v2q-6 -1 -6 5v21l6 5v2h-18v-1v-1l4 -2q1 -1 1 -3v-9h-17v9q1 5 5 5v1v1h-17v-2l4 -2q1 -1 1 -3v-21l-5 -5v-2h17v2q-5 0 -5 5v10h17v-10q-1 -5 -5 -5v-2h18zM439 664l-4 2q-1 1 -1 3v21q1 5 5 5v2h-29l-2 -10l2 -1
q3 8 9 8h4q4 0 4 -3v-10h-4l-6 5h-2v-13h2q0 6 6 6h4v-11q0 -3 -4 -3h-4q-3 0 -5.5 2.5t-3.5 4.5l-1 2l-2 -1l2 -11h30v2zM827 618v6h-685v-6h685zM696 540q0 15 -11.5 26.5t-25.5 11.5q-8 0 -15.5 -5.5t-7.5 -16.5q0 -16 11 -27t26 -11q8 0 15.5 5.5t7.5 16.5zM589 537
q0 12 -14 17q5 3 5 9q0 15 -21 15q-13 0 -13 -11q0 -6 5 -6q4 0 4 3q0 2 -1.5 3.5t-1.5 2.5q0 5 7 5q10 0 10 -12q0 -4 -2 -6q-16 2 -16 -6q0 -6 8 -6q6 0 11 5q6 -4 6 -15q0 -14 -12 -14t-12 9q0 3 3 3l1 -1q2 -1 4 -1q4 0 4 5t-7 5q-9 0 -9 -10q0 -13 16 -13q25 0 25 19z
M295 537q0 12 -14 17q5 3 5 9q0 15 -21 15q-13 0 -13 -11q0 -6 5 -6q4 0 4 3q0 2 -1.5 3.5t-1.5 2.5q0 5 7 5q10 0 10 -12q0 -4 -2 -6q-16 2 -16 -6q0 -6 8 -6q6 0 11 5q6 -4 6 -15q0 -14 -12 -14t-12 9q0 3 3 3l1 -1q2 -1 4 -1q4 0 4 5t-7 5q-9 0 -9 -10q0 -13 16 -13
q25 0 25 19zM820 522q-8 -1 -10 8l-7 35q-1 4 1 6t4 2h2l-1 3h-28l1 -3q7 1 9 -8l3 -15h-24l-3 15q-1 4 1 6t4 2h2l-1 3h-29l1 -3q8 1 10 -8l7 -35q1 -4 -1 -6t-4 -2h-2l1 -3h29l-1 3q-8 -1 -10 8l-3 16h24l3 -16q1 -4 -1 -6t-4 -2h-2l1 -3h29zM498 519l-1 3q-8 -1 -10 8
l-7 35q-1 4 1 6t4 2h2l-1 3h-45v-17h4q-1 13 13 13h4q5 0 6 -6l3 -16h-4q-4 0 -7 2t-4 4l-1 3h-3l5 -23h3q-1 11 8 11h4l3 -17q1 -4 -1 -6t-4 -2h-2l1 -3h29zM202 522q-8 -1 -10 8l-7 35q-1 4 1 6t4 2h2l-1 3h-27q-20 0 -20 -15q0 -13 19 -15l-9 -16q-2 -4 -5.5 -6t-6.5 -2
h-2l1 -3h19l12 23q2 3 5 3l3 -15q1 -4 -1 -6t-4 -2h-2l1 -3h29zM400 521q0 8 -13 9q-4 2 -5 14.5t-5.5 23t-18.5 10.5q-5 0 -9 -3.5t-4 -6.5q0 -5 5 -5q4 0 4 6t5 6t7 -8t4.5 -19.5t9.5 -17.5q-8 0 -14 -6.5t-9 -6.5q-5 0 -5 4q0 2 1 3t1 2q0 5 -5 5t-5 -7q0 -4 5 -8t10 -4
q10 0 15 6.5t10 6.5q4 -7 12 -7q4 0 4 3zM827 475v6h-685v-6h685zM827 378v62h-147v-62h36v28h11v-65h-14v-33h81v33h-14v65h11v-28h36zM648 406v34h-81v-34h11l-15 -23l-15 23h10v34h-62v-34h12l37 -46v-19h-14v-33h81v33h-15v20l37 45h14zM458 308v33h-14v65h14v34h-96
q-21 0 -34 -11.5t-13 -28.5q0 -18 13 -29t34 -11h30v-19h-15v-33h81zM283 308v33h-14v65h14v34h-141v-62h41v28h33v-20h-24v-24h24v-21h-33v28h-41v-61h141zM827 271v6h-685v-6h685zM728 192q0 15 -11.5 26.5t-25.5 11.5q-8 0 -15.5 -5.5t-7.5 -16.5q0 -16 11 -27t26 -11
q8 0 15.5 5.5t7.5 16.5zM203 217q-7 13 -18 13q-15 0 -14 -23q-7 23 -21 23q-12 0 -12 -12l3 -1q0 6 8 6q16 0 24 -33q2 -8 0.5 -11.5t-3.5 -3.5h-3l1 -4h28l-1 4q-7 -2 -10 9q-5 17 -5 25q0 13 9 13q5 0 12 -7zM823 171l-1 3q-8 -1 -10 8l-7 35q-1 4 1 6t4 2h2l-1 3h-45
v-17h4q-1 13 13 13h4q5 0 6 -6l3 -16h-4q-4 0 -7 2t-4 4l-1 3h-3l5 -23h3q-1 11 8 11h4l3 -17q1 -4 -1 -6t-4 -2h-2l1 -3h29zM621 225l-1 3h-29l1 -3q8 1 10 -9l5 -21q5 -20 -11 -20q-14 0 -20 22l-4 19q-1 5 1 7t4 2h2v3h-24l1 -3q9 1 11 -9l4 -19q5 -27 28 -27q24 0 19 24
l-5 22q-1 5 1 7t4 2h3zM522 174q-6 0 -9 10l-7 32q-1 4 1 6.5t5 2.5h2l-1 3h-14l-29 -42l-5 30q-1 4 1 6t4 2l2 1l-1 3h-21l1 -3q7 0 9 -9l8 -45l3 -1l30 44l6 -30q1 -5 -0.5 -7.5t-3.5 -2.5h-2l1 -3h21zM414 171l-1 4q-7 -2 -10 9l-8 31q-3 9 8 10l-1 3h-30q-25 0 -25 -22
q0 -15 11 -25t24 -10h32zM306 174q-8 -1 -10 8l-7 35q-1 4 1 6t4 2h2l-1 3h-27q-20 0 -20 -15q0 -13 19 -15l-9 -16q-2 -4 -5.5 -6t-6.5 -2h-2l1 -3h19l12 23q2 3 5 3l3 -15q1 -4 -1 -6t-4 -2h-2l1 -3h29zM827 127v6h-685v-6h685zM694 46v2q-6 1 -6 5v20l6 6v2h-10l-24 -26
v18q0 2 1.5 3.5t2.5 1.5l2 1v2h-15v-2q6 -1 6 -6v-28h3l25 28v-20l-5 -5v-2h14zM633 48l-4 2q-1 1 -1 3v21q1 5 5 5v2h-29l-2 -10l2 -1q3 8 9 8h4q4 0 4 -3v-10h-4l-6 5h-2v-13h2q0 6 6 6h4v-11q0 -3 -4 -3h-4q-3 0 -5.5 2.5t-3.5 4.5l-1 2l-2 -1l2 -11h30v2zM583 81h-15v-2
l2 -5l-9 -19l-5 10l4 8l6 6v2h-26l1 -2q3 0 7 -6l3 -5l-7 -13l-8 18l2 6v2h-13v-2q4 -1 6 -6l13 -27h1q1 -1 1 0l8 16l9 -16h1l12 27q1 3 3 4.5t3 1.5h1v2zM480 79v2h-15v-2l1 -5l-6 -9l-6 9l3 5v2h-15v-2q5 0 8 -5l8 -12v-8l-5 -6v-2h17v2q-5 0 -5 6v8l8 12zM425 64
q0 18 -20 18t-20 -18q0 -19 20 -19t20 19zM364 46v2q-5 0 -5 5v20l5 6v2h-18q-13 0 -13 -9q0 -5 9 -9l-7 -10l-8 -5v-2h11l7 12q3 4 7 4v-9l-5 -5v-2h17zM309 46v2q-6 1 -6 6v20l6 5v2h-18v-2q6 0 6 -5v-9q-2 0 -4 2l-8 8l1 4v2h-14v-2q5 -1 8 -4l10 -9l-13 -13l-7 -5v-2h17
v2l-2 5l8 8q2 2 4 2v-9q0 -3 -1.5 -4.5t-3.5 -1.5h-1v-2h18zM606 -83q0 8 -11 7v-13q11 0 11 6zM525 -82q0 8 -11 6v-12q11 -1 11 6zM394 -83q0 8 -11 7v-13q11 0 11 6zM564 -92l-5 12l-5 -12h10zM800 -88q0 13 -11 13t-11 -12q0 -13 11 -13t11 12zM441 -88q0 13 -11 13
t-11 -12q0 -13 11 -13t11 12zM176 548h-5q-15 0 -15 15q0 9 8 9t9 -5zM566 553q-3 -4 -7 -4t-4 2q0 3 4 3q5 0 7 -1zM272 553q-3 -4 -7 -4t-4 2q0 3 4 3q5 0 7 -1zM684 535q0 -13 -11 -13q-9 0 -17 11.5t-8 26.5q0 14 11 14q9 0 17 -12t8 -27zM392 384h-11q-13 0 -13 11
t13 11h11v-22zM280 200h-5q-15 0 -15 15q0 9 8 9t9 -5zM716 187q0 -13 -11 -13q-9 0 -17 11.5t-8 26.5q0 14 11 14q9 0 17 -12t8 -27zM393 182q0 -7 -4 -7h-5q-11 0 -18.5 10t-7.5 22q0 17 14 17h6q4 -1 6 -7zM553 79q5 0 0 -9q-5 9 0 9zM352 64h-3q-8 0 -8 8q0 6 7 6
q4 0 4 -4v-10zM417 64q0 -17 -12 -17t-12 17q0 16 12 16t12 -16z" />
    <glyph glyph-name="three.salt" horiz-adv-x="607" 
d="M303 -12q-81 0 -147.5 35t-110.5 94l42 31q85 -113 218 -113q77 0 127.5 41t50.5 107v2q0 69 -54 107t-153 38h-70v46h71q82 0 134.5 39.5t52.5 106.5v2q0 61 -46.5 101t-121.5 40q-116 0 -195 -107l-40 24q87 130 237 130q95 0 157.5 -53t62.5 -133v-2q0 -121 -133 -166
q69 -19 110.5 -62.5t41.5 -109.5v-2q0 -82 -66.5 -139t-167.5 -57z" />
    <glyph glyph-name="Q.salt" horiz-adv-x="850" 
d="M737 -101l-143 131q-76 -42 -170 -42q-155 0 -253 106t-98 254v2q0 149 99 255.5t254 106.5t253 -106t98 -254q1 -1 0 -2q0 -85 -35.5 -161t-99.5 -127l170 -159v-4h-75zM426 35q128 0 212.5 91t84.5 222v2q0 131 -85.5 223t-213.5 92t-212.5 -91t-84.5 -222v-2
q0 -131 85.5 -223t213.5 -92z" />
    </font>
</defs>
</svg>
