<?xml version="1.0" standalone="no"?>
<!DOCTYPE svg PUBLIC "-//W3C//DTD SVG 1.1//EN" "http://www.w3.org/Graphics/SVG/1.1/DTD/svg11.dtd" >
<svg xmlns="http://www.w3.org/2000/svg" xmlns:xlink="http://www.w3.org/1999/xlink" version="1.1">
<metadata>
Created by FontForge 20170731 at Mon Feb 12 19:48:40 2007
 By Aleksey,,,
Copyright (c) 2007 by The Hoefler Type Foundry, Inc. 2007 Greek by Cannibal. All rights reserved.
</metadata>
<defs>
<font id="GothamGreek-Book" horiz-adv-x="500" >
  <font-face 
    font-family="Gotham Greek Book"
    font-weight="400"
    font-stretch="normal"
    units-per-em="1000"
    panose-1="2 0 5 3 2 0 0 2 0 4"
    ascent="800"
    descent="-200"
    x-height="517"
    cap-height="700"
    bbox="-175 -164.714 1158 907"
    underline-thickness="20"
    underline-position="-173"
    unicode-range="U+0020-FB04"
  />
<missing-glyph 
 />
    <glyph glyph-name="f_i" unicode="fi" horiz-adv-x="631" 
d="M455 630v85h88v-85h-88zM115 0v449h-71v67h71v45q0 88 45 133q40 40 111 40q49 0 85 -13v-67q-46 13 -75 13q-90 0 -90 -110v-42h164v-66h-163v-449h-77zM461 0v517h76v-517h-76z" />
    <glyph glyph-name="f_l" unicode="fl" horiz-adv-x="631" 
d="M115 0v449h-71v67h71v45q0 88 45 133q40 40 111 40q49 0 85 -13v-67q-46 13 -75 13q-90 0 -90 -110v-42h164v-66h-163v-449h-77zM461 0v730h76v-730h-76z" />
    <glyph glyph-name=".notdef" 
 />
    <glyph glyph-name=".null" horiz-adv-x="0" 
 />
    <glyph glyph-name="nonmarkingreturn" horiz-adv-x="333" 
 />
    <glyph glyph-name="space" unicode=" " horiz-adv-x="300" 
 />
    <glyph glyph-name="exclam" unicode="!" horiz-adv-x="271" 
d="M114 198l-23 445v57h90v-57l-24 -445h-43zM90 0v105h92v-105h-92z" />
    <glyph glyph-name="quotedbl" unicode="&#x22;" horiz-adv-x="440" 
d="M260 428l31 272h92v-5l-81 -267h-42zM65 428l30 272h93v-5l-81 -267h-42z" />
    <glyph glyph-name="numbersign" unicode="#" horiz-adv-x="700" 
d="M124 0l30 177h-109v69h121l37 212h-119v69h130l30 173h70l-29 -173h190l30 173h70l-29 -173h108v-69h-120l-37 -212h118v-69h-129l-31 -177h-70l30 177h-190l-31 -177h-70zM237 246h190l36 212h-190z" />
    <glyph glyph-name="dollar" unicode="$" horiz-adv-x="636" 
d="M292 -98v100q-128 11 -236 103l45 60q92 -84 194 -95v250q-112 27 -162.5 72t-50.5 122v2q0 77 59 128.5t151 55.5v58h64v-60q98 -9 191 -80l-43 -60q-68 58 -151 72v-246q114 -26 165 -72t51 -122v-2q0 -80 -58.5 -131t-154.5 -57v-98h-64zM295 398v235
q-62 -2 -99 -33.5t-37 -78.5v-2q0 -45 29 -72.5t107 -48.5zM353 306v-239q63 3 101 35t38 81v2q0 47 -29.5 74.5t-109.5 46.5z" />
    <glyph glyph-name="percent" unicode="%" horiz-adv-x="834" 
d="M210 350q-69 0 -113.5 52.5t-44.5 124.5v2q0 73 45 126t115 53q68 0 112.5 -52.5t44.5 -124.5v-2q0 -73 -45 -126t-114 -53zM124 0l514 700h71l-513 -700h-72zM622 -8q-68 0 -112.5 52.5t-44.5 124.5v2q0 73 45 126t114 53q70 0 113.5 -52.5t43.5 -124.5v-2
q0 -74 -44.5 -126.5t-114.5 -52.5zM212 406q40 0 65.5 35t25.5 86v2q0 51 -27.5 87t-65.5 36q-40 0 -65.5 -35t-25.5 -86v-2q0 -52 27 -87.5t66 -35.5zM624 48q40 0 65.5 35t25.5 86v2q0 52 -27 87.5t-66 35.5q-40 0 -65.5 -35t-25.5 -86v-2q0 -52 27 -87.5t66 -35.5z" />
    <glyph glyph-name="ampersand" unicode="&#x26;" horiz-adv-x="696" 
d="M604 -14l-110 113q-101 -109 -229 -109q-95 0 -157.5 54.5t-62.5 141.5v2q0 135 169 202q-37 43 -53.5 78t-16.5 76v2q0 70 51.5 118t133.5 48q73 0 121.5 -46t48.5 -112v-2q0 -124 -165 -182l160 -163q46 67 84 156l65 -30q-51 -111 -101 -176l122 -125zM290 415
q135 47 135 133v2q0 42 -28 69.5t-71 27.5q-47 0 -76.5 -29t-29.5 -72v-2q0 -30 15.5 -59t54.5 -70zM271 57q92 0 175 91l-187 193q-134 -50 -134 -150v-2q0 -57 41 -94.5t105 -37.5z" />
    <glyph glyph-name="quotesingle" unicode="'" horiz-adv-x="245" 
d="M65 428l30 272h94v-5l-81 -267h-43z" />
    <glyph glyph-name="parenleft" unicode="(" horiz-adv-x="434" 
d="M378 -90l-33 -51q-277 155 -277 428t277 428l33 -51q-232 -147 -232 -377t232 -377z" />
    <glyph glyph-name="parenright" unicode=")" horiz-adv-x="434" 
d="M89 -141l-33 51q232 147 232 377t-232 377l33 51q277 -155 277 -428t-277 -428z" />
    <glyph glyph-name="asterisk" unicode="*" horiz-adv-x="430" 
d="M189 397l10 125l-103 -73l-27 47l116 53l-116 54l27 46l103 -72l-10 125h52l-10 -125l103 72l27 -46l-116 -54l116 -53l-27 -47l-103 73l10 -125h-52z" />
    <glyph glyph-name="plus" unicode="+" horiz-adv-x="640" 
d="M283 110v206h-208v72h208v206h74v-206h208v-72h-208v-206h-74z" />
    <glyph glyph-name="comma" unicode="," horiz-adv-x="245" 
d="M58 -122l-12 35q73 27 67 87h-36v105h92v-90q0 -60 -26.5 -92t-84.5 -45z" />
    <glyph glyph-name="hyphen" unicode="-" horiz-adv-x="408" 
d="M65 260v81h278v-81h-278z" />
    <glyph glyph-name="period" unicode="." horiz-adv-x="245" 
d="M77 0v105h92v-105h-92z" />
    <glyph glyph-name="slash" unicode="/" horiz-adv-x="508" 
d="M-21 -128l464 926h71l-464 -926h-71z" />
    <glyph glyph-name="zero" unicode="0" horiz-adv-x="715" 
d="M357 -12q-132 0 -213.5 104.5t-81.5 255.5v2q0 151 82.5 256.5t214.5 105.5t213 -104.5t81 -255.5v-2q0 -151 -82 -256.5t-214 -105.5zM359 60q96 0 154 84t58 204v2q0 119 -59.5 204.5t-154.5 85.5t-154 -84t-59 -204v-2q0 -119 59.5 -204.5t155.5 -85.5z" />
    <glyph glyph-name="one" unicode="1" horiz-adv-x="358" 
d="M179 0v623l-132 -41l-19 64l171 59h58v-705h-78z" />
    <glyph glyph-name="two" unicode="2" horiz-adv-x="599" 
d="M48 0v61l254 224q82 73 114 120.5t32 99.5q0 60 -41 97t-100 37q-58 0 -101 -29t-87 -91l-58 42q53 77 108.5 113t143.5 36q94 0 155.5 -56t61.5 -142v-2q0 -73 -39 -129.5t-138 -142.5l-187 -166h371v-72h-489z" />
    <glyph glyph-name="three" unicode="3" horiz-adv-x="613" 
d="M311 -12q-166 0 -261 125l57 51q85 -104 205 -104q65 0 109 37.5t44 98.5v2q0 64 -54 99.5t-142 35.5h-45l-16 47l221 249h-342v71h447v-58l-220 -244q101 -9 166 -57.5t65 -139.5v-2q0 -92 -67.5 -151.5t-166.5 -59.5z" />
    <glyph glyph-name="four" unicode="4" horiz-adv-x="671" 
d="M432 0v166h-369l-20 57l396 482h69v-473h109v-66h-109v-166h-76zM138 232h294v361z" />
    <glyph glyph-name="five" unicode="5" horiz-adv-x="612" 
d="M303 -12q-139 0 -250 111l52 57q98 -96 199 -96q74 0 121.5 44t47.5 111v2q0 66 -49 106.5t-125 40.5t-147 -40l-53 35l20 341h403v-73h-334l-15 -224q67 31 138 31q105 0 173.5 -58t68.5 -156v-2q0 -102 -69.5 -166t-180.5 -64z" />
    <glyph glyph-name="six" unicode="6" horiz-adv-x="647" 
d="M333 -12q-113 0 -184 71q-45 45 -66.5 107t-21.5 164v2q0 165 78.5 272.5t212.5 107.5q111 0 207 -80l-46 -61q-82 69 -165 69q-94 0 -149.5 -86t-55.5 -223q71 107 199 107q101 0 171.5 -59.5t70.5 -155.5v-2q0 -101 -72 -167t-179 -66zM334 58q76 0 122.5 46t46.5 114
v2q0 64 -48 107t-123 43q-76 0 -125.5 -46.5t-49.5 -106.5v-2q0 -67 50 -112t127 -45z" />
    <glyph glyph-name="seven" unicode="7" horiz-adv-x="596" 
d="M137 0l316 628h-385v72h475v-59l-318 -641h-88z" />
    <glyph glyph-name="eight" unicode="8" horiz-adv-x="630" 
d="M315 -10q-113 0 -188 55.5t-75 142.5v2q0 60 39 103.5t105 68.5q-120 55 -120 161v2q0 79 70.5 132t168.5 53t168.5 -53t70.5 -132v-2q0 -106 -120 -161q66 -25 105 -68t39 -103v-2q0 -88 -75 -143.5t-188 -55.5zM315 390q68 0 114 36t46 92v2q0 52 -45.5 86.5
t-114.5 34.5t-114.5 -34.5t-45.5 -86.5v-2q0 -56 46 -92t114 -36zM315 59q84 0 133.5 38t49.5 93v2q0 57 -53 95t-130 38t-130 -38t-53 -95v-2q0 -55 49.5 -93t133.5 -38z" />
    <glyph glyph-name="nine" unicode="9" horiz-adv-x="647" 
d="M295 -12q-111 0 -216 86l46 61q84 -75 172 -75q94 0 152 86t56 221q-72 -112 -198 -112q-108 0 -176 61t-68 156v2q0 101 71 169.5t181 68.5q112 0 184 -72q87 -87 87 -271v-2q0 -167 -81 -273t-210 -106zM316 323q78 0 126 47.5t48 110.5v2q0 67 -50 113t-128 46
q-76 0 -122 -48t-46 -116v-2q0 -67 48 -110t124 -43z" />
    <glyph glyph-name="colon" unicode=":" horiz-adv-x="255" 
d="M82 412v105h92v-105h-92zM82 0v105h92v-105h-92z" />
    <glyph glyph-name="semicolon" unicode=";" horiz-adv-x="255" 
d="M82 412v105h92v-105h-92zM63 -122l-12 35q73 27 67 87h-36v105h92v-90q0 -60 -26.5 -92t-84.5 -45z" />
    <glyph glyph-name="less" unicode="&#x3c;" horiz-adv-x="640" 
d="M541 86l-469 233v66l469 233v-77l-385 -188l385 -189v-78z" />
    <glyph glyph-name="equal" unicode="=" horiz-adv-x="640" 
d="M90 432v74h460v-74h-460zM90 198v74h460v-74h-460z" />
    <glyph glyph-name="greater" unicode="&#x3e;" horiz-adv-x="640" 
d="M99 86v77l385 188l-385 189v78l469 -233v-66z" />
    <glyph glyph-name="question" unicode="?" horiz-adv-x="537" 
d="M220 198l-15 162l5 5q97 2 148 39.5t51 101.5v2q0 56 -40 93t-106 37q-102 0 -182 -94l-51 49q96 116 235 116q100 0 162 -56t62 -142v-2q0 -89 -58 -139.5t-150 -63.5l-10 -108h-51zM199 0v105h92v-105h-92z" />
    <glyph glyph-name="at" unicode="@" horiz-adv-x="980" 
d="M499 -162q-190 0 -318 127.5t-128 308.5q0 180 127.5 309t310.5 129q181 0 308.5 -118.5t127.5 -277.5q0 -119 -55.5 -182t-131.5 -63q-109 0 -140 84q-73 -84 -165 -84q-76 0 -127.5 51t-51.5 131q0 103 71.5 176t159.5 73q100 0 146 -83l13 69l67 -9l-40 -227
q-7 -39 -7 -61q0 -39 22 -60t63 -21q58 0 99 53t41 153q0 68 -31 134t-83.5 116t-127.5 81t-158 31q-170 0 -286 -118.5t-116 -285.5q0 -169 116 -285.5t294 -116.5q133 0 249 68l16 -27q-123 -75 -265 -75zM450 133q64 0 114 55t50 125q0 55 -34.5 91t-87.5 36
q-65 0 -114.5 -53t-49.5 -129q0 -59 33.5 -92t88.5 -33z" />
    <glyph glyph-name="A" unicode="A" horiz-adv-x="790" 
d="M39 0l319 705h74l319 -705h-85l-82 185h-381l-83 -185h-81zM234 256h319l-159 357z" />
    <glyph glyph-name="B" unicode="B" horiz-adv-x="722" 
d="M99 0v700h298q119 0 183 -62q45 -46 45 -112v-2q0 -114 -111 -162q150 -43 150 -169v-2q0 -89 -69 -140t-185 -51h-311zM177 388h207q74 0 117.5 32t43.5 93v2q0 53 -40.5 83.5t-114.5 30.5h-213v-241zM177 71h235q81 0 126.5 33t45.5 92v2q0 58 -47.5 89t-138.5 31h-221
v-247z" />
    <glyph glyph-name="C" unicode="C" horiz-adv-x="738" 
d="M419 -12q-150 0 -250.5 104t-100.5 256v2q0 151 101 256.5t253 105.5q90 0 153.5 -28t119.5 -83l-54 -58q-50 47 -101.5 71.5t-118.5 24.5q-116 0 -193.5 -83t-77.5 -204v-2q0 -122 77.5 -205.5t193.5 -83.5q68 0 120 25t106 76l52 -51q-59 -60 -124.5 -91.5
t-155.5 -31.5z" />
    <glyph glyph-name="D" unicode="D" horiz-adv-x="782" 
d="M99 0v700h243q163 0 267.5 -99.5t104.5 -248.5v-2q0 -150 -104.5 -250t-267.5 -100h-243zM178 73h164q131 0 210.5 78t79.5 197v2q0 119 -80 198t-210 79h-164v-554z" />
    <glyph glyph-name="E" unicode="E" horiz-adv-x="670" 
d="M99 0v700h506v-72h-427v-239h382v-72h-382v-245h432v-72h-511z" />
    <glyph glyph-name="F" unicode="F" horiz-adv-x="656" 
d="M99 0v700h503v-73h-424v-250h379v-72h-379v-305h-79z" />
    <glyph glyph-name="G" unicode="G" horiz-adv-x="784" 
d="M424 -12q-161 0 -258.5 103t-97.5 257v2q0 148 99 255t252 107q84 0 144.5 -23t116.5 -70l-51 -60q-90 80 -213 80q-114 0 -190 -84t-76 -203v-2q0 -127 75.5 -209t201.5 -82q116 0 202 70v174h-213v71h289v-279q-118 -107 -281 -107z" />
    <glyph glyph-name="H" unicode="H" horiz-adv-x="760" 
d="M99 0v700h79v-311h404v311h79v-700h-79v315h-404v-315h-79z" />
    <glyph glyph-name="I" unicode="I" horiz-adv-x="291" 
d="M106 0v700h79v-700h-79z" />
    <glyph glyph-name="J" unicode="J" horiz-adv-x="553" 
d="M247 -10q-140 0 -216 124l57 49q34 -51 70.5 -75.5t89.5 -24.5q61 0 99 43.5t38 124.5v469h80v-468q0 -120 -64 -184q-59 -58 -154 -58z" />
    <glyph glyph-name="K" unicode="K" horiz-adv-x="719" 
d="M99 0v700h79v-418l402 418h102l-300 -306l313 -394h-99l-269 339l-149 -151v-188h-79z" />
    <glyph glyph-name="L" unicode="L" horiz-adv-x="619" 
d="M99 0v700h79v-627h394v-73h-473z" />
    <glyph glyph-name="M" unicode="M" horiz-adv-x="868" 
d="M99 0v700h80l255 -382l255 382h80v-700h-79v567l-255 -375h-4l-255 374v-566h-77z" />
    <glyph glyph-name="N" unicode="N" horiz-adv-x="790" 
d="M99 0v700h74l441 -561v561h77v-700h-63l-452 574v-574h-77z" />
    <glyph glyph-name="O" unicode="O" horiz-adv-x="850" 
d="M424 -12q-156 0 -256 105.5t-100 254.5v2q0 149 101 255.5t257 106.5t256 -105.5t100 -254.5q1 -1 0 -2q0 -149 -101 -255.5t-257 -106.5zM426 61q119 0 196.5 83t77.5 204v2q0 121 -78.5 205t-197.5 84t-196.5 -83t-77.5 -204v-2q0 -121 78.5 -205t197.5 -84z" />
    <glyph glyph-name="P" unicode="P" horiz-adv-x="668" 
d="M99 0v700h262q119 0 190.5 -59.5t71.5 -162.5v-2q0 -109 -78.5 -169t-196.5 -60h-170v-247h-79zM178 319h173q87 0 139.5 42.5t52.5 111.5v2q0 73 -50.5 112.5t-137.5 39.5h-177v-308z" />
    <glyph glyph-name="Q" unicode="Q" horiz-adv-x="850" 
d="M737 -21l-92 84q-96 -75 -221 -75q-156 0 -256 105.5t-100 254.5v2q0 149 101 255.5t257 106.5t256 -105.5t100 -254.5q1 -1 0 -2q0 -137 -84 -235l93 -77zM426 61q92 0 161 53l-130 111l53 59l129 -117q61 77 61 181v2q0 121 -78.5 205t-197.5 84t-196.5 -83t-77.5 -204
v-2q0 -121 78.5 -205t197.5 -84z" />
    <glyph glyph-name="R" unicode="R" horiz-adv-x="723" 
d="M99 0v700h301q129 0 199 -70q54 -54 54 -138v-2q0 -84 -51.5 -135.5t-138.5 -68.5l215 -286h-97l-203 272h-2h-198v-272h-79zM178 343h215q80 0 130 39t50 105v2q0 65 -47 101.5t-132 36.5h-216v-284z" />
    <glyph glyph-name="S" unicode="S" horiz-adv-x="640" 
d="M339 -10q-162 0 -286 112l49 58q56 -51 112.5 -75t127.5 -24q70 0 113 33.5t43 85.5v2q0 51 -38 80.5t-144 52.5q-124 27 -179.5 72.5t-55.5 129.5v2q0 82 65.5 136.5t164.5 54.5q75 0 132.5 -21t113.5 -65l-46 -61q-93 76 -202 76q-68 0 -108.5 -32t-40.5 -81v-2
q0 -52 39.5 -82.5t150.5 -53.5q118 -25 173 -72t55 -126v-2q0 -89 -67 -143.5t-172 -54.5z" />
    <glyph glyph-name="T" unicode="T" horiz-adv-x="648" 
d="M284 0v627h-235v73h550v-73h-235v-627h-80z" />
    <glyph glyph-name="U" unicode="U" horiz-adv-x="759" 
d="M379 -11q-133 0 -212 79.5t-79 224.5v407h79v-402q0 -113 56 -174.5t158 -61.5q99 0 155 59t56 172v407h79v-401q0 -149 -79 -229.5t-213 -80.5z" />
    <glyph glyph-name="V" unicode="V" horiz-adv-x="750" 
d="M340 -5l-301 705h88l249 -603l250 603h85l-301 -705h-70z" />
    <glyph glyph-name="W" unicode="W" horiz-adv-x="1107" 
d="M295 -5l-250 705h86l200 -583l192 585h65l192 -585l200 583h83l-250 -705h-67l-192 568l-193 -568h-66z" />
    <glyph glyph-name="X" unicode="X" horiz-adv-x="725" 
d="M46 0l269 357l-259 343h93l215 -286l213 286h92l-259 -342l269 -358h-94l-224 301l-224 -301h-91z" />
    <glyph glyph-name="Y" unicode="Y" horiz-adv-x="716" 
d="M318 0v277l-291 423h96l236 -350l238 350h92l-291 -422v-278h-80z" />
    <glyph glyph-name="Z" unicode="Z" horiz-adv-x="693" 
d="M67 0v53l453 576h-438v71h546v-53l-454 -576h454v-71h-561z" />
    <glyph glyph-name="bracketleft" unicode="[" horiz-adv-x="439" 
d="M94 -130v830h286v-60h-213v-710h213v-60h-286z" />
    <glyph glyph-name="backslash" unicode="\" horiz-adv-x="508" 
d="M458 -128l-464 926h71l464 -926h-71z" />
    <glyph glyph-name="bracketright" unicode="]" horiz-adv-x="439" 
d="M59 -130v60h214v710h-214v60h286v-830h-286z" />
    <glyph glyph-name="asciicircum" unicode="^" 
d="M65 493l155 209h60l155 -209h-68l-118 154l-118 -154h-66z" />
    <glyph glyph-name="underscore" unicode="_" horiz-adv-x="600" 
d="M-2 -160v63h604v-63h-604z" />
    <glyph glyph-name="grave" unicode="`" 
d="M257 595l-113 108l80 37l95 -145h-62z" />
    <glyph glyph-name="a" unicode="a" horiz-adv-x="579" 
d="M240 -11q-78 0 -135.5 43t-57.5 118v2q0 81 60 125t161 44q78 0 158 -22v16q0 68 -40 104t-113 36q-80 0 -157 -37l-23 63q93 44 188 44q110 0 167 -57q54 -54 54 -152v-316h-76v77q-68 -88 -186 -88zM255 51q73 0 122.5 39t49.5 100v48q-78 22 -151 22q-71 0 -111 -28
t-40 -76v-2q0 -47 38 -75t92 -28z" />
    <glyph glyph-name="b" unicode="b" horiz-adv-x="664" 
d="M361 -11q-123 0 -198 110v-99h-77v730h77v-317q80 115 198 115q99 0 173 -73t74 -195v-2q0 -121 -74 -195t-173 -74zM347 58q78 0 130 54t52 145v2q0 90 -52.5 145t-129.5 55q-75 0 -131 -56.5t-56 -142.5v-2q0 -87 56 -143.5t131 -56.5z" />
    <glyph glyph-name="c" unicode="c" horiz-adv-x="571" 
d="M319 -12q-113 0 -189 79t-76 189v2q0 112 76 191t189 79q120 0 207 -92l-51 -54q-74 78 -157 78q-79 0 -132 -58t-53 -142v-2q0 -84 54.5 -142.5t135.5 -58.5q86 0 158 77l49 -46q-88 -100 -211 -100z" />
    <glyph glyph-name="d" unicode="d" horiz-adv-x="664" 
d="M303 -11q-99 0 -173 73t-74 195v2q0 121 74 195t173 74q123 0 198 -110v312h77v-730h-77v104q-81 -115 -198 -115zM317 58q75 0 131 56.5t56 143.5v2q0 86 -56 142.5t-131 56.5q-78 0 -130 -54t-52 -145v-2q0 -90 52.5 -145t129.5 -55z" />
    <glyph glyph-name="e" unicode="e" horiz-adv-x="592" 
d="M542 227h-410q8 -79 59.5 -125.5t122.5 -46.5q92 0 163 73l48 -43q-85 -97 -213 -97q-108 0 -183 76t-75 194q0 114 70.5 192t177.5 78q111 0 176 -78t65 -196v-12q0 -9 -1 -15zM132 289h333q-6 74 -49.5 124t-115.5 50q-66 0 -113 -49t-55 -125z" />
    <glyph glyph-name="f" unicode="f" horiz-adv-x="367" 
d="M115 0v449h-71v67h71v45q0 88 45 133q40 40 111 40q49 0 85 -13v-67q-46 13 -75 13q-90 0 -90 -110v-42h164v-66h-163v-449h-77z" />
    <glyph glyph-name="g" unicode="g" horiz-adv-x="664" 
d="M315 -162q-131 0 -235 72l35 60q92 -66 199 -66q88 0 138 47.5t50 136.5v61q-82 -109 -203 -109q-97 0 -170 67.5t-73 174.5v2q0 109 72.5 176.5t170.5 67.5q122 0 202 -104v93h77v-427q0 -117 -66 -183q-69 -69 -197 -69zM314 108q76 0 133 49.5t57 125.5v2
q0 77 -56.5 126t-133.5 49q-76 0 -127.5 -48t-51.5 -126v-2q0 -76 52.5 -126t126.5 -50z" />
    <glyph glyph-name="h" unicode="h" horiz-adv-x="616" 
d="M86 0v730h77v-303q63 101 177 101q92 0 145 -57t53 -150v-321h-77v302q0 73 -37.5 114.5t-105.5 41.5q-67 0 -111 -45t-44 -117v-296h-77z" />
    <glyph glyph-name="i" unicode="i" horiz-adv-x="263" 
d="M88 630v85h88v-85h-88zM93 0v517h77v-517h-77z" />
    <glyph glyph-name="j" unicode="j" horiz-adv-x="263" 
d="M88 630v85h88v-85h-88zM44 -163q-27 0 -48 5v63q12 -3 38 -3q59 0 59 69v546h77v-547q0 -133 -126 -133z" />
    <glyph glyph-name="k" unicode="k" horiz-adv-x="569" 
d="M86 0v730h77v-504l279 291h96l-217 -222l224 -295h-92l-185 241l-105 -106v-135h-77z" />
    <glyph glyph-name="l" unicode="l" horiz-adv-x="263" 
d="M93 0v730h77v-730h-77z" />
    <glyph glyph-name="m" unicode="m" horiz-adv-x="951" 
d="M86 0v517h77v-87q31 46 69 72t98 26q117 0 166 -103q67 103 182 103q90 0 141 -55.5t51 -152.5v-320h-77v302q0 75 -35.5 115.5t-98.5 40.5q-60 0 -101.5 -43t-41.5 -117v-298h-76v304q0 73 -35.5 113.5t-97.5 40.5t-103 -46t-41 -117v-295h-77z" />
    <glyph glyph-name="n" unicode="n" horiz-adv-x="616" 
d="M86 0v517h77v-90q63 101 177 101q92 0 145 -57t53 -150v-321h-77v302q0 73 -37.5 114.5t-105.5 41.5q-67 0 -111 -45t-44 -117v-296h-77z" />
    <glyph glyph-name="o" unicode="o" horiz-adv-x="646" 
d="M322 -12q-115 0 -191.5 78.5t-76.5 189.5v2q0 112 77.5 191t192.5 79t192 -78.5t77 -189.5v-2q0 -112 -77.5 -191t-193.5 -79zM324 57q82 0 136 58t54 141v2q0 84 -55.5 143t-136.5 59q-82 0 -135.5 -58.5t-53.5 -141.5v-2q0 -84 55 -142.5t136 -58.5z" />
    <glyph glyph-name="p" unicode="p" horiz-adv-x="664" 
d="M86 -160v677h77v-104q80 115 198 115q99 0 173 -73t74 -195v-2q0 -121 -74 -195t-173 -74q-123 0 -198 110v-259h-77zM347 58q78 0 130 54t52 145v2q0 90 -52.5 145t-129.5 55q-75 0 -131 -56.5t-56 -142.5v-2q0 -87 56 -143.5t131 -56.5z" />
    <glyph glyph-name="q" unicode="q" horiz-adv-x="664" 
d="M501 -160v264q-81 -115 -198 -115q-99 0 -173 73t-74 195v2q0 121 74 195t173 74q123 0 198 -110v99h77v-677h-77zM317 58q75 0 131 56.5t56 143.5v2q0 86 -56 142.5t-131 56.5q-78 0 -130 -54t-52 -145v-2q0 -90 52.5 -145t129.5 -55z" />
    <glyph glyph-name="r" unicode="r" horiz-adv-x="405" 
d="M86 0v517h77v-135q29 67 85 107.5t126 36.5v-83h-6q-89 0 -147 -62t-58 -175v-206h-77z" />
    <glyph glyph-name="s" unicode="s" horiz-adv-x="498" 
d="M257 -10q-119 0 -214 76l39 55q86 -66 179 -66q48 0 77.5 22t29.5 60v2q0 35 -33.5 55t-95.5 36q-28 8 -41 12.5t-38 14.5t-37.5 19.5t-27 24t-21 33.5t-6.5 42v2q0 66 49.5 107t126.5 41q100 0 186 -57l-35 -58q-77 50 -153 50q-45 0 -72.5 -21t-27.5 -54v-2
q0 -14 8 -26t18 -20t31.5 -17t34.5 -13t41 -13q29 -9 48.5 -16t44 -19.5t39 -27t24.5 -36.5t10 -49v-2q0 -72 -52 -113.5t-132 -41.5z" />
    <glyph glyph-name="t" unicode="t" horiz-adv-x="404" 
d="M259 -9q-67 0 -106.5 35.5t-39.5 110.5v312h-72v68h72v156h77v-156h164v-68h-164v-302q0 -86 87 -86q38 0 75 18v-66q-40 -22 -93 -22z" />
    <glyph glyph-name="u" unicode="u" horiz-adv-x="616" 
d="M276 -11q-92 0 -145 57t-53 150v321h77v-302q0 -73 37.5 -114.5t105.5 -41.5q67 0 111 45t44 117v296h76v-517h-76v90q-63 -101 -177 -101z" />
    <glyph glyph-name="v" unicode="v" horiz-adv-x="587" 
d="M259 -4l-224 521h85l174 -429l175 429h83l-225 -521h-68z" />
    <glyph glyph-name="w" unicode="w" horiz-adv-x="861" 
d="M223 -4l-181 521h82l136 -415l139 417h64l140 -417l136 415h80l-182 -521h-67l-139 408l-140 -408h-68z" />
    <glyph glyph-name="x" unicode="x" horiz-adv-x="574" 
d="M39 0l203 263l-195 254h88l153 -200l153 200h86l-196 -252l204 -265h-89l-160 211l-161 -211h-86z" />
    <glyph glyph-name="y" unicode="y" horiz-adv-x="591" 
d="M166 -163q-56 0 -110 26l26 61q37 -19 81 -19q36 0 59.5 21.5t46.5 75.5l-235 515h85l188 -431l166 431h82l-217 -534q-32 -79 -72.5 -112.5t-99.5 -33.5z" />
    <glyph glyph-name="z" unicode="z" horiz-adv-x="556" 
d="M56 0v49l343 403h-331v65h436v-49l-344 -403h344v-65h-448z" />
    <glyph glyph-name="braceleft" unicode="{" horiz-adv-x="483" 
d="M428 -90l-12 -51q-127 23 -172 70t-45 132v16q0 7 0.5 22t0.5 21v17q0 61 -26.5 90.5t-91.5 29.5h-26v60h26q65 0 91.5 29.5t26.5 90.5v17q0 8 -0.5 22.5t-0.5 20.5v16q0 85 45 132t172 70l12 -51q-69 -17 -103 -38.5t-43.5 -47.5t-9.5 -75q0 -10 0.5 -37t0.5 -38
q0 -60 -26.5 -92.5t-77.5 -48.5q53 -17 78.5 -49t25.5 -92q0 -11 -0.5 -38t-0.5 -37q0 -49 9.5 -75t43.5 -47.5t103 -38.5z" />
    <glyph glyph-name="bar" unicode="|" horiz-adv-x="303" 
d="M119 -128v926h65v-926h-65z" />
    <glyph glyph-name="braceright" unicode="}" horiz-adv-x="483" 
d="M67 -141l-13 51q70 17 104 38.5t43.5 47.5t9.5 75q0 10 -0.5 37t-0.5 38q0 60 26.5 92.5t77.5 48.5q-53 17 -78.5 49t-25.5 92q0 11 0.5 38t0.5 37q0 49 -9.5 75t-43.5 47.5t-104 38.5l13 51q127 -23 172 -70t45 -132v-16q0 -6 -0.5 -20.5t-0.5 -22.5v-17q0 -62 26 -91
t91 -29h26v-60h-26q-65 0 -91 -29t-26 -91v-17q0 -6 0.5 -21t0.5 -22v-16q0 -85 -45 -132t-172 -70z" />
    <glyph glyph-name="asciitilde" unicode="~" horiz-adv-x="473" 
d="M120 237l-47 13q15 57 37 81.5t58 24.5q24 0 71 -20.5t63 -20.5q20 0 30 10.5t22 39.5l46 -13q-15 -57 -36.5 -81.5t-57.5 -24.5q-24 0 -71 20.5t-63 20.5q-20 0 -30 -10.5t-22 -39.5z" />
    <glyph glyph-name="exclamdown" unicode="&#xa1;" horiz-adv-x="271" 
d="M90 595v105h92v-105h-92zM91 0v57l23 445h43l24 -445v-57h-90z" />
    <glyph glyph-name="cent" unicode="&#xa2;" horiz-adv-x="581" 
d="M212 -6l22 106q-79 28 -127.5 97.5t-48.5 155.5v2q0 111 77 190.5t188 79.5h13l15 81h65l-18 -90q70 -19 132 -84l-50 -52q-51 52 -98 67l-77 -392q3 -1 10 -1h11q87 0 159 77l48 -45q-88 -101 -211 -101h-14q-8 0 -13 1l-18 -92h-65zM250 169l75 387h-4
q-78 0 -131.5 -58t-53.5 -141v-2q0 -62 31 -112t83 -74z" />
    <glyph glyph-name="sterling" unicode="&#xa3;" horiz-adv-x="644" 
d="M67 0v46l84 21v228h-84v69h84v108q0 115 63 178q60 60 158 60q129 0 214 -108l-61 -48q-33 41 -68 62t-86 21q-60 0 -98 -37q-43 -44 -43 -128v-108h279v-69h-279v-225h355v-70h-518z" />
    <glyph glyph-name="currency" unicode="&#xa4;" horiz-adv-x="529" 
d="M507 541l-54 -52q56 -64 56 -152t-57 -151l55 -53l-37 -41l-55 55q-68 -52 -151 -52q-84 0 -150 52l-56 -55l-37 41l55 53q-56 64 -56 151q0 88 56 152l-55 53l37 40l56 -54q66 52 150 52q85 0 151 -52l55 54zM448 337q0 77 -54 131.5t-130 54.5t-129.5 -54.5
t-53.5 -131.5t53.5 -131t129.5 -54t130 54.5t54 130.5z" />
    <glyph glyph-name="yen" unicode="&#xa5;" horiz-adv-x="686" 
d="M305 0v116h-205v62h205v88h-205v62h181l-254 372h94l223 -342l225 342h90l-255 -372h182v-62h-205v-88h205v-62h-205v-116h-76z" />
    <glyph glyph-name="brokenbar" unicode="&#xa6;" horiz-adv-x="303" 
d="M119 402v396h65v-396h-65zM119 -127v396h65v-396h-65z" />
    <glyph glyph-name="section" unicode="&#xa7;" horiz-adv-x="632" 
d="M328 -10q-136 0 -229 95l50 48q80 -77 181 -77q51 0 77 18.5t26 47.5v2q0 29 -35.5 49.5t-127.5 42.5q-115 28 -161.5 59.5t-46.5 82.5v2q0 45 35.5 74.5t96.5 39.5q-74 38 -74 101v2q0 60 50 96.5t134 36.5q136 0 229 -95l-50 -48q-80 77 -181 77q-51 0 -77 -18t-26 -48
v-2q0 -29 36 -50t127 -42q114 -26 161 -58t47 -84v-2q0 -44 -35.5 -74t-96.5 -40q74 -38 74 -101v-2q0 -60 -50 -96.5t-134 -36.5zM387 263q48 0 78.5 20.5t30.5 48.5v2q0 26 -32 47t-110 40q-65 16 -109 16q-48 0 -78.5 -20.5t-30.5 -48.5v-2q0 -26 32 -47t110 -40
q64 -16 109 -16z" />
    <glyph glyph-name="dieresis" unicode="&#xa8;" 
d="M293 595v95h90v-95h-90zM117 595v95h90v-95h-90z" />
    <glyph glyph-name="copyright" unicode="&#xa9;" horiz-adv-x="830" 
d="M414 -12q-151 0 -256 105.5t-105 254.5v2q0 148 105.5 255t257.5 107q151 0 256 -105.5t105 -254.5v-2q0 -148 -105.5 -255t-257.5 -107zM414 19q140 0 235 97.5t95 233.5v2q0 137 -94.5 233t-233.5 96q-140 0 -235 -97.5t-95 -233.5v-2q0 -137 94.5 -233t233.5 -96z
M419 163q-79 0 -132.5 55.5t-53.5 135.5v2q0 79 54 135t134 56q81 0 144 -60l-37 -40q-52 50 -108 50t-93.5 -41t-37.5 -99v-2q0 -58 38 -99.5t94 -41.5q57 0 110 50l36 -35q-64 -66 -148 -66z" />
    <glyph glyph-name="ordfeminine" unicode="&#xaa;" horiz-adv-x="390" 
d="M168 408q-43 0 -75 24t-32 66v2q0 44 34 68.5t89 24.5q44 0 80 -11v5q0 71 -78 71q-37 0 -86 -22l-15 42q58 25 106 25q58 0 93 -32q29 -29 29 -84v-173h-49v38q-37 -44 -96 -44zM58 289v47h260v-47h-260zM177 450q36 0 61.5 19.5t25.5 50.5v24q-31 11 -76 11
q-35 0 -55 -14.5t-20 -38.5v-2q0 -23 18.5 -36.5t45.5 -13.5z" />
    <glyph glyph-name="guillemotleft" unicode="&#xab;" horiz-adv-x="550" 
d="M433 41l-162 214v8l162 213l58 -33l-135 -183l135 -185zM210 41l-162 214v8l162 213l59 -33l-135 -183l135 -185z" />
    <glyph glyph-name="uni00AD" unicode="&#xad;" horiz-adv-x="408" 
d="M65 260v81h278v-81h-278z" />
    <glyph glyph-name="registered" unicode="&#xae;" horiz-adv-x="830" 
d="M414 -12q-151 0 -256 105.5t-105 254.5v2q0 148 105.5 255t257.5 107q151 0 256 -105.5t105 -254.5v-2q0 -148 -105.5 -255t-257.5 -107zM414 19q140 0 235 97.5t95 233.5v2q0 137 -94.5 233t-233.5 96q-140 0 -235 -97.5t-95 -233.5v-2q0 -137 94.5 -233t233.5 -96z
M273 175v371h166q71 0 110 -39q30 -27 30 -72v-2q0 -43 -26 -71t-70 -38l115 -149h-68l-107 140h-2h-93v-140h-55zM328 364h106q40 0 64 17t24 49v2q0 29 -22.5 46.5t-62.5 17.5h-109v-132z" />
    <glyph glyph-name="macron" unicode="&#xaf;" 
d="M92 600v67h316v-67h-316z" />
    <glyph glyph-name="degree" unicode="&#xb0;" horiz-adv-x="458" 
d="M229 400q-62 0 -109.5 46t-47.5 106v2q0 62 47.5 107t109.5 45q63 0 110 -45t47 -107v-2q0 -60 -47.5 -106t-109.5 -46zM229 452q42 0 70.5 30t28.5 70v2q0 40 -28.5 70t-70.5 30t-70.5 -30t-28.5 -70v-2q0 -40 28.5 -70t70.5 -30z" />
    <glyph glyph-name="twosuperior" unicode="&#xb2;" horiz-adv-x="341" 
d="M312 306h-288v45l153 135q40 35 54.5 58t14.5 47q0 27 -20 44.5t-51 17.5q-30 0 -53 -16.5t-48 -52.5l-44 35q31 45 64.5 67.5t83.5 22.5q57 0 93 -33t36 -83q0 -38 -20 -68.5t-72 -76.5l-97 -88h194v-54z" />
    <glyph glyph-name="threesuperior" unicode="&#xb3;" horiz-adv-x="341" 
d="M314 425q0 -53 -40 -88t-99 -35q-94 0 -154 78l42 38q49 -61 113 -61q33 0 55.5 19t22.5 48q0 66 -104 66h-30l-11 37l114 124h-179v54h264l-1 -42l-116 -126q57 -6 90 -34t33 -78z" />
    <glyph glyph-name="acute" unicode="&#xb4;" 
d="M181 595l95 145l80 -37l-113 -108h-62z" />
    <glyph glyph-name="mu" unicode="&#xb5;" horiz-adv-x="624" 
d="M163 -160h-77v677h77v-291q0 -68 40 -117.5t107 -49.5q64 0 107.5 45.5t43.5 116.5v296h77v-517h-77v90q-52 -99 -150 -99q-54 0 -92 29.5t-56 66.5v-247z" />
    <glyph glyph-name="paragraph" unicode="&#xb6;" horiz-adv-x="510" 
d="M338 0v264h-11q-122 0 -200.5 57.5t-78.5 159.5v2q0 100 73 158.5t191 58.5h106v-700h-80z" />
    <glyph glyph-name="periodcentered" unicode="&#xb7;" horiz-adv-x="245" 
d="M77 248v105h92v-105h-92z" />
    <glyph glyph-name="cedilla" unicode="&#xb8;" 
d="M225 -155l-75 34l90 131h61z" />
    <glyph glyph-name="onesuperior" unicode="&#xb9;" horiz-adv-x="341" 
d="M228 306h-59v335l-67 -23l-17 52l103 35h40v-399z" />
    <glyph glyph-name="ordmasculine" unicode="&#xba;" horiz-adv-x="390" 
d="M194 407q-62 0 -104 43t-42 104v2q0 62 42.5 105.5t105.5 43.5q62 0 104 -43t42 -104v-2q0 -62 -42.5 -105.5t-105.5 -43.5zM51 289v47h288v-47h-288zM196 455q41 0 66.5 28.5t25.5 70.5v2q0 42 -27 71.5t-67 29.5q-41 0 -66.5 -28.5t-25.5 -70.5v-2q0 -43 26.5 -72
t67.5 -29z" />
    <glyph glyph-name="guillemotright" unicode="&#xbb;" horiz-adv-x="550" 
d="M340 41l-59 33l135 184l-135 184l59 34l162 -213v-8zM117 41l-58 33l135 184l-135 184l58 34l162 -213v-8z" />
    <glyph glyph-name="onehalf" unicode="&#xbd;" horiz-adv-x="842" 
d="M97 0l513 700h66q-388 -529 -513 -700h-66zM219 303h-59v335l-67 -23l-17 52l103 35h40v-399zM757 0h-287v44l152 136q40 36 55 58t15 46q0 25 -19 42t-47 17q-63 0 -106 -65l-44 34q31 45 64.5 67.5t82.5 22.5q58 0 94 -33t36 -82q0 -36 -17.5 -66t-61.5 -69l-111 -98
h194v-54z" />
    <glyph glyph-name="questiondown" unicode="&#xbf;" horiz-adv-x="537" 
d="M246 595v105h92v-105h-92zM272 -9q-101 0 -162.5 55.5t-61.5 142.5v2q0 89 58 139.5t150 63.5l9 108h51l16 -162l-5 -5q-97 -2 -148 -39.5t-51 -101.5v-2q0 -56 40 -93t106 -37q101 0 181 94l51 -49q-96 -116 -234 -116z" />
    <glyph glyph-name="Agrave" unicode="&#xc0;" horiz-adv-x="790" 
d="M39 0l319 705h74l319 -705h-85l-82 185h-381l-83 -185h-81zM234 256h319l-159 357zM363 762l-113 108l80 37l95 -145h-62z" />
    <glyph glyph-name="Aacute" unicode="&#xc1;" horiz-adv-x="790" 
d="M39 0l319 705h74l319 -705h-85l-82 185h-381l-83 -185h-81zM234 256h319l-159 357zM365 762l95 145l80 -37l-113 -108h-62z" />
    <glyph glyph-name="Acircumflex" unicode="&#xc2;" horiz-adv-x="790" 
d="M39 0l319 705h74l319 -705h-85l-82 185h-381l-83 -185h-81zM234 256h319l-159 357zM255 759l106 131h68l106 -131h-66l-75 67l-75 -67h-64z" />
    <glyph glyph-name="Atilde" unicode="&#xc3;" horiz-adv-x="790" 
d="M39 0l319 705h74l319 -705h-85l-82 185h-381l-83 -185h-81zM234 256h319l-159 357zM278 753l-47 13q15 57 37 81t58 24q24 0 71 -20t63 -20q20 0 30 10.5t22 38.5l47 -13q-15 -57 -37 -81t-58 -24q-24 0 -71 20t-63 20q-20 0 -30 -10.5t-22 -38.5z" />
    <glyph glyph-name="Adieresis" unicode="&#xc4;" horiz-adv-x="790" 
d="M39 0l319 705h74l319 -705h-85l-82 185h-381l-83 -185h-81zM234 256h319l-159 357zM438 762v95h90v-95h-90zM262 762v95h90v-95h-90z" />
    <glyph glyph-name="Aring" unicode="&#xc5;" horiz-adv-x="790" 
d="M39 0l307 680q-55 29 -55 86v2q0 40 31.5 69.5t72.5 29.5t72.5 -29.5t31.5 -69.5v-2q0 -57 -55 -86l307 -680h-85l-82 185h-381l-83 -185h-81zM395 705q25 0 43.5 18t18.5 43v2q0 25 -18 43t-44 18t-44 -18t-18 -43v-2q0 -25 18.5 -43t43.5 -18zM234 256h319l-159 357z
" />
    <glyph glyph-name="AE" unicode="&#xc6;" horiz-adv-x="1045" 
d="M17 0l411 700h552v-72h-409v-239h364v-72h-364v-245h414v-72h-494v185h-282l-109 -185h-83zM249 256h242v374h-24z" />
    <glyph glyph-name="Ccedilla" unicode="&#xc7;" horiz-adv-x="738" 
d="M369 -155l-75 34l77 112q-133 18 -218 118t-85 239v2q0 151 101 256.5t253 105.5q90 0 153.5 -28t119.5 -83l-54 -58q-50 47 -101.5 71.5t-118.5 24.5q-116 0 -193.5 -83t-77.5 -204v-2q0 -122 77.5 -205.5t193.5 -83.5q68 0 120 25t106 76l52 -51q-113 -117 -264 -123z
" />
    <glyph glyph-name="Egrave" unicode="&#xc8;" horiz-adv-x="670" 
d="M99 0v700h506v-72h-427v-239h382v-72h-382v-245h432v-72h-511zM340 762l-113 108l80 37l95 -145h-62z" />
    <glyph glyph-name="Eacute" unicode="&#xc9;" horiz-adv-x="670" 
d="M99 0v700h506v-72h-427v-239h382v-72h-382v-245h432v-72h-511zM297 762l95 145l80 -37l-113 -108h-62z" />
    <glyph glyph-name="Ecircumflex" unicode="&#xca;" horiz-adv-x="670" 
d="M99 0v700h506v-72h-427v-239h382v-72h-382v-245h432v-72h-511zM208 762l106 131h68l106 -131h-66l-75 67l-75 -67h-64z" />
    <glyph glyph-name="Edieresis" unicode="&#xcb;" horiz-adv-x="670" 
d="M99 0v700h506v-72h-427v-239h382v-72h-382v-245h432v-72h-511zM391 762v95h90v-95h-90zM215 762v95h90v-95h-90z" />
    <glyph glyph-name="Igrave" unicode="&#xcc;" horiz-adv-x="291" 
d="M106 0v700h79v-700h-79zM115 762l-113 108l80 37l95 -145h-62z" />
    <glyph glyph-name="Iacute" unicode="&#xcd;" horiz-adv-x="291" 
d="M106 0v700h79v-700h-79zM114 762l95 145l80 -37l-113 -108h-62z" />
    <glyph glyph-name="Icircumflex" unicode="&#xce;" horiz-adv-x="291" 
d="M106 0v700h79v-700h-79zM6 762l106 131h68l106 -131h-66l-75 67l-75 -67h-64z" />
    <glyph glyph-name="Idieresis" unicode="&#xcf;" horiz-adv-x="291" 
d="M106 0v700h79v-700h-79zM189 762v95h90v-95h-90zM13 762v95h90v-95h-90z" />
    <glyph glyph-name="Eth" unicode="&#xd0;" horiz-adv-x="812" 
d="M129 0v316h-75v72h75v312h243q163 0 267.5 -99.5t104.5 -248.5v-2q0 -150 -104.5 -250t-267.5 -100h-243zM208 73h164q131 0 210.5 78t79.5 197v2q0 119 -80 198t-210 79h-164v-239h210v-72h-210v-243z" />
    <glyph glyph-name="Ntilde" unicode="&#xd1;" horiz-adv-x="790" 
d="M99 0v700h74l441 -561v561h77v-700h-63l-452 574v-574h-77zM278 753l-47 13q15 57 37 81t58 24q24 0 71 -20t63 -20q20 0 30 10.5t22 38.5l47 -13q-15 -57 -37 -81t-58 -24q-24 0 -71 20t-63 20q-20 0 -30 -10.5t-22 -38.5z" />
    <glyph glyph-name="Ograve" unicode="&#xd2;" horiz-adv-x="850" 
d="M424 -12q-156 0 -256 105.5t-100 254.5v2q0 149 101 255.5t257 106.5t256 -105.5t100 -254.5q1 -1 0 -2q0 -149 -101 -255.5t-257 -106.5zM426 61q119 0 196.5 83t77.5 204v2q0 121 -78.5 205t-197.5 84t-196.5 -83t-77.5 -204v-2q0 -121 78.5 -205t197.5 -84zM389 762
l-113 108l80 37l95 -145h-62z" />
    <glyph glyph-name="Oacute" unicode="&#xd3;" horiz-adv-x="850" 
d="M424 -12q-156 0 -256 105.5t-100 254.5v2q0 149 101 255.5t257 106.5t256 -105.5t100 -254.5q1 -1 0 -2q0 -149 -101 -255.5t-257 -106.5zM426 61q119 0 196.5 83t77.5 204v2q0 121 -78.5 205t-197.5 84t-196.5 -83t-77.5 -204v-2q0 -121 78.5 -205t197.5 -84zM399 762
l95 145l80 -37l-113 -108h-62z" />
    <glyph glyph-name="Ocircumflex" unicode="&#xd4;" horiz-adv-x="850" 
d="M424 -12q-156 0 -256 105.5t-100 254.5v2q0 149 101 255.5t257 106.5t256 -105.5t100 -254.5q1 -1 0 -2q0 -149 -101 -255.5t-257 -106.5zM426 61q119 0 196.5 83t77.5 204v2q0 121 -78.5 205t-197.5 84t-196.5 -83t-77.5 -204v-2q0 -121 78.5 -205t197.5 -84zM285 762
l106 131h68l106 -131h-66l-75 67l-75 -67h-64z" />
    <glyph glyph-name="Otilde" unicode="&#xd5;" horiz-adv-x="850" 
d="M424 -12q-156 0 -256 105.5t-100 254.5v2q0 149 101 255.5t257 106.5t256 -105.5t100 -254.5q1 -1 0 -2q0 -149 -101 -255.5t-257 -106.5zM426 61q119 0 196.5 83t77.5 204v2q0 121 -78.5 205t-197.5 84t-196.5 -83t-77.5 -204v-2q0 -121 78.5 -205t197.5 -84zM308 753
l-47 13q15 57 37 81t58 24q24 0 71 -20t63 -20q20 0 30 10.5t22 38.5l47 -13q-15 -57 -37 -81t-58 -24q-24 0 -71 20t-63 20q-20 0 -30 -10.5t-22 -38.5z" />
    <glyph glyph-name="Odieresis" unicode="&#xd6;" horiz-adv-x="850" 
d="M424 -12q-156 0 -256 105.5t-100 254.5v2q0 149 101 255.5t257 106.5t256 -105.5t100 -254.5q1 -1 0 -2q0 -149 -101 -255.5t-257 -106.5zM426 61q119 0 196.5 83t77.5 204v2q0 121 -78.5 205t-197.5 84t-196.5 -83t-77.5 -204v-2q0 -121 78.5 -205t197.5 -84zM468 762
v95h90v-95h-90zM292 762v95h90v-95h-90z" />
    <glyph glyph-name="Oslash" unicode="&#xd8;" horiz-adv-x="850" 
d="M424 -12q-127 0 -219 73l-62 -66h-83l99 108q-91 100 -91 245v2q0 149 101 255.5t257 106.5q126 0 219 -74l62 67h83l-99 -108q91 -100 91 -245q1 -1 0 -2q0 -149 -101 -255.5t-257 -106.5zM213 163l381 416q-70 61 -170 61q-119 0 -196.5 -83.5t-77.5 -204.5v-2
q0 -107 63 -187zM426 60q119 0 196.5 83.5t77.5 204.5v2q0 107 -63 187l-381 -416q70 -61 170 -61z" />
    <glyph glyph-name="Ugrave" unicode="&#xd9;" horiz-adv-x="759" 
d="M379 -11q-133 0 -212 79.5t-79 224.5v407h79v-402q0 -113 56 -174.5t158 -61.5q99 0 155 59t56 172v407h79v-401q0 -149 -79 -229.5t-213 -80.5zM354 757l-113 108l80 37l95 -145h-62z" />
    <glyph glyph-name="Uacute" unicode="&#xda;" horiz-adv-x="759" 
d="M379 -11q-133 0 -212 79.5t-79 224.5v407h79v-402q0 -113 56 -174.5t158 -61.5q99 0 155 59t56 172v407h79v-401q0 -149 -79 -229.5t-213 -80.5zM343 757l95 145l80 -37l-113 -108h-62z" />
    <glyph glyph-name="Ucircumflex" unicode="&#xdb;" horiz-adv-x="759" 
d="M379 -11q-133 0 -212 79.5t-79 224.5v407h79v-402q0 -113 56 -174.5t158 -61.5q99 0 155 59t56 172v407h79v-401q0 -149 -79 -229.5t-213 -80.5zM239 759l106 131h68l106 -131h-66l-75 67l-75 -67h-64z" />
    <glyph glyph-name="Udieresis" unicode="&#xdc;" horiz-adv-x="759" 
d="M379 -11q-133 0 -212 79.5t-79 224.5v407h79v-402q0 -113 56 -174.5t158 -61.5q99 0 155 59t56 172v407h79v-401q0 -149 -79 -229.5t-213 -80.5zM422 759v95h90v-95h-90zM246 759v95h90v-95h-90z" />
    <glyph glyph-name="Yacute" unicode="&#xdd;" horiz-adv-x="716" 
d="M318 0v277l-291 423h96l236 -350l238 350h92l-291 -422v-278h-80zM329 757l95 145l80 -37l-113 -108h-62z" />
    <glyph glyph-name="Thorn" unicode="&#xde;" horiz-adv-x="673" 
d="M99 0v700h79v-120h183q119 0 190.5 -60t71.5 -162v-2q0 -109 -78.5 -169.5t-196.5 -60.5h-170v-126h-79zM178 198h173q87 0 139.5 43t52.5 112v2q0 73 -50.5 112.5t-137.5 39.5h-177v-309z" />
    <glyph glyph-name="germandbls" unicode="&#xdf;" horiz-adv-x="620" 
d="M292 -2v62q91 2 141 36t50 96v2q0 59 -50.5 93.5t-140.5 43.5v57q148 56 148 162v2q0 52 -36 84.5t-95 32.5q-65 0 -105.5 -45.5t-40.5 -121.5v-502h-77v501q0 106 61.5 171t165.5 65q92 0 149 -51.5t57 -128.5v-2q0 -65 -40 -111.5t-99 -71.5q80 -19 131 -62.5
t51 -115.5v-2q0 -92 -73 -144t-197 -50z" />
    <glyph glyph-name="agrave" unicode="&#xe0;" horiz-adv-x="579" 
d="M240 -11q-78 0 -135.5 43t-57.5 118v2q0 81 60 125t161 44q78 0 158 -22v16q0 68 -40 104t-113 36q-80 0 -157 -37l-23 63q93 44 188 44q110 0 167 -57q54 -54 54 -152v-316h-76v77q-68 -88 -186 -88zM255 51q73 0 122.5 39t49.5 100v48q-78 22 -151 22q-71 0 -111 -28
t-40 -76v-2q0 -47 38 -75t92 -28zM261 595l-113 108l80 37l95 -145h-62z" />
    <glyph glyph-name="aacute" unicode="&#xe1;" horiz-adv-x="579" 
d="M240 -11q-78 0 -135.5 43t-57.5 118v2q0 81 60 125t161 44q78 0 158 -22v16q0 68 -40 104t-113 36q-80 0 -157 -37l-23 63q93 44 188 44q110 0 167 -57q54 -54 54 -152v-316h-76v77q-68 -88 -186 -88zM255 51q73 0 122.5 39t49.5 100v48q-78 22 -151 22q-71 0 -111 -28
t-40 -76v-2q0 -47 38 -75t92 -28zM248 595l95 145l80 -37l-113 -108h-62z" />
    <glyph glyph-name="acircumflex" unicode="&#xe2;" horiz-adv-x="579" 
d="M240 -11q-78 0 -135.5 43t-57.5 118v2q0 81 60 125t161 44q78 0 158 -22v16q0 68 -40 104t-113 36q-80 0 -157 -37l-23 63q93 44 188 44q110 0 167 -57q54 -54 54 -152v-316h-76v77q-68 -88 -186 -88zM255 51q73 0 122.5 39t49.5 100v48q-78 22 -151 22q-71 0 -111 -28
t-40 -76v-2q0 -47 38 -75t92 -28zM151 595l106 131h68l106 -131h-66l-75 67l-75 -67h-64z" />
    <glyph glyph-name="atilde" unicode="&#xe3;" horiz-adv-x="579" 
d="M240 -11q-78 0 -135.5 43t-57.5 118v2q0 81 60 125t161 44q78 0 158 -22v16q0 68 -40 104t-113 36q-80 0 -157 -37l-23 63q93 44 188 44q110 0 167 -57q54 -54 54 -152v-316h-76v77q-68 -88 -186 -88zM255 51q73 0 122.5 39t49.5 100v48q-78 22 -151 22q-71 0 -111 -28
t-40 -76v-2q0 -47 38 -75t92 -28zM175 586l-47 13q15 57 37 81t58 24q24 0 71 -20t63 -20q19 0 29.5 10.5t22.5 38.5l47 -13q-15 -57 -37 -81t-58 -24q-24 0 -71 20t-63 20q-19 0 -29.5 -10.5t-22.5 -38.5z" />
    <glyph glyph-name="adieresis" unicode="&#xe4;" horiz-adv-x="579" 
d="M240 -11q-78 0 -135.5 43t-57.5 118v2q0 81 60 125t161 44q78 0 158 -22v16q0 68 -40 104t-113 36q-80 0 -157 -37l-23 63q93 44 188 44q110 0 167 -57q54 -54 54 -152v-316h-76v77q-68 -88 -186 -88zM255 51q73 0 122.5 39t49.5 100v48q-78 22 -151 22q-71 0 -111 -28
t-40 -76v-2q0 -47 38 -75t92 -28zM334 595v95h90v-95h-90zM158 595v95h90v-95h-90z" />
    <glyph glyph-name="aring" unicode="&#xe5;" horiz-adv-x="579" 
d="M240 -11q-78 0 -135.5 43t-57.5 118v2q0 81 60 125t161 44q78 0 158 -22v16q0 68 -40 104t-113 36q-80 0 -157 -37l-23 63q93 44 188 44q110 0 167 -57q54 -54 54 -152v-316h-76v77q-68 -88 -186 -88zM255 51q73 0 122.5 39t49.5 100v48q-78 22 -151 22q-71 0 -111 -28
t-40 -76v-2q0 -47 38 -75t92 -28zM291 593q-41 0 -72.5 29.5t-31.5 69.5v2q0 40 31.5 69.5t72.5 29.5t72.5 -29.5t31.5 -69.5v-2q0 -40 -31.5 -69.5t-72.5 -29.5zM291 631q25 0 43.5 18t18.5 43v2q0 25 -18 43t-44 18t-44 -18t-18 -43v-2q0 -25 18.5 -43t43.5 -18z" />
    <glyph glyph-name="ae" unicode="&#xe6;" horiz-adv-x="953" 
d="M236 -11q-75 0 -132 43t-57 118v2q0 81 59.5 125t157.5 44q67 0 153 -22v16q0 69 -39 104.5t-109 35.5q-76 0 -153 -37l-23 63q93 44 184 44q149 0 189 -112q31 53 83.5 84t114.5 31q111 0 175.5 -78t64.5 -196v-12q0 -9 -1 -15h-410q8 -79 59.5 -125.5t122.5 -46.5
q92 0 163 73l48 -43q-85 -97 -213 -97q-62 0 -115.5 27.5t-89.5 76.5q-45 -45 -107.5 -74t-124.5 -29zM493 289h333q-6 74 -49.5 124t-115.5 50q-66 0 -113 -49t-55 -125zM251 51q63 0 103.5 23t82.5 69q-18 45 -21 97q-71 20 -144 20q-68 0 -107.5 -28t-39.5 -76v-2
q0 -47 37.5 -75t88.5 -28z" />
    <glyph glyph-name="ccedilla" unicode="&#xe7;" horiz-adv-x="571" 
d="M268 -155l-75 34l78 114q-94 16 -155.5 90.5t-61.5 172.5v2q0 112 76 191t189 79q120 0 207 -92l-51 -54q-74 78 -157 78q-79 0 -132 -58t-53 -142v-2q0 -84 54.5 -142.5t135.5 -58.5q86 0 158 77l49 -46q-85 -94 -196 -100z" />
    <glyph glyph-name="egrave" unicode="&#xe8;" horiz-adv-x="592" 
d="M542 227h-410q8 -79 59.5 -125.5t122.5 -46.5q92 0 163 73l48 -43q-85 -97 -213 -97q-108 0 -183 76t-75 194q0 114 70.5 192t177.5 78q111 0 176 -78t65 -196v-12q0 -9 -1 -15zM132 289h333q-6 74 -49.5 124t-115.5 50q-66 0 -113 -49t-55 -125zM276 595l-113 108l80 37
l95 -145h-62z" />
    <glyph glyph-name="eacute" unicode="&#xe9;" horiz-adv-x="592" 
d="M542 227h-410q8 -79 59.5 -125.5t122.5 -46.5q92 0 163 73l48 -43q-85 -97 -213 -97q-108 0 -183 76t-75 194q0 114 70.5 192t177.5 78q111 0 176 -78t65 -196v-12q0 -9 -1 -15zM132 289h333q-6 74 -49.5 124t-115.5 50q-66 0 -113 -49t-55 -125zM254 595l95 145l80 -37
l-113 -108h-62z" />
    <glyph glyph-name="ecircumflex" unicode="&#xea;" horiz-adv-x="592" 
d="M542 227h-410q8 -79 59.5 -125.5t122.5 -46.5q92 0 163 73l48 -43q-85 -97 -213 -97q-108 0 -183 76t-75 194q0 114 70.5 192t177.5 78q111 0 176 -78t65 -196v-12q0 -9 -1 -15zM132 289h333q-6 74 -49.5 124t-115.5 50q-66 0 -113 -49t-55 -125zM159 595l106 131h68
l106 -131h-66l-75 67l-75 -67h-64z" />
    <glyph glyph-name="edieresis" unicode="&#xeb;" horiz-adv-x="592" 
d="M542 227h-410q8 -79 59.5 -125.5t122.5 -46.5q92 0 163 73l48 -43q-85 -97 -213 -97q-108 0 -183 76t-75 194q0 114 70.5 192t177.5 78q111 0 176 -78t65 -196v-12q0 -9 -1 -15zM132 289h333q-6 74 -49.5 124t-115.5 50q-66 0 -113 -49t-55 -125zM342 595v95h90v-95h-90z
M166 595v95h90v-95h-90z" />
    <glyph glyph-name="igrave" unicode="&#xec;" horiz-adv-x="263" 
d="M93 0v517h77v-517h-77zM102 595l-113 108l80 37l95 -145h-62z" />
    <glyph glyph-name="iacute" unicode="&#xed;" horiz-adv-x="263" 
d="M93 0v517h77v-517h-77zM100 595l95 145l80 -37l-113 -108h-62z" />
    <glyph glyph-name="icircumflex" unicode="&#xee;" horiz-adv-x="263" 
d="M93 0v517h77v-517h-77zM-9 595l106 131h68l106 -131h-66l-75 67l-75 -67h-64z" />
    <glyph glyph-name="idieresis" unicode="&#xef;" horiz-adv-x="263" 
d="M93 0v517h77v-517h-77zM174 595v95h90v-95h-90zM-2 595v95h90v-95h-90z" />
    <glyph glyph-name="eth" unicode="&#xf0;" horiz-adv-x="633" 
d="M312 -12q-110 0 -184 75.5t-74 181.5v2q0 105 69 172t168 67q84 0 162 -55l-131 184l-128 -63l-36 47l131 61l-50 70h92l26 -39l99 48l35 -47l-102 -47l101 -149q88 -126 88 -243v-2q0 -109 -73.5 -186t-192.5 -77zM317 56q80 0 131 55t51 132v2q0 74 -55 127t-135 53
q-79 0 -128 -52t-49 -129v-2q0 -74 53 -130t132 -56z" />
    <glyph glyph-name="ntilde" unicode="&#xf1;" horiz-adv-x="616" 
d="M86 0v517h77v-90q63 101 177 101q92 0 145 -57t53 -150v-321h-77v302q0 73 -37.5 114.5t-105.5 41.5q-67 0 -111 -45t-44 -117v-296h-77zM195 586l-47 13q15 57 37 81t58 24q24 0 71 -20t63 -20q19 0 29.5 10.5t22.5 38.5l47 -13q-15 -57 -37 -81t-58 -24q-24 0 -71 20
t-63 20q-19 0 -29.5 -10.5t-22.5 -38.5z" />
    <glyph glyph-name="ograve" unicode="&#xf2;" horiz-adv-x="646" 
d="M322 -12q-115 0 -191.5 78.5t-76.5 189.5v2q0 112 77.5 191t192.5 79t192 -78.5t77 -189.5v-2q0 -112 -77.5 -191t-193.5 -79zM324 57q82 0 136 58t54 141v2q0 84 -55.5 143t-136.5 59q-82 0 -135.5 -58.5t-53.5 -141.5v-2q0 -84 55 -142.5t136 -58.5zM292 595l-113 108
l80 37l95 -145h-62z" />
    <glyph glyph-name="oacute" unicode="&#xf3;" horiz-adv-x="646" 
d="M322 -12q-115 0 -191.5 78.5t-76.5 189.5v2q0 112 77.5 191t192.5 79t192 -78.5t77 -189.5v-2q0 -112 -77.5 -191t-193.5 -79zM324 57q82 0 136 58t54 141v2q0 84 -55.5 143t-136.5 59q-82 0 -135.5 -58.5t-53.5 -141.5v-2q0 -84 55 -142.5t136 -58.5zM293 595l95 145
l80 -37l-113 -108h-62z" />
    <glyph glyph-name="ocircumflex" unicode="&#xf4;" horiz-adv-x="646" 
d="M322 -12q-115 0 -191.5 78.5t-76.5 189.5v2q0 112 77.5 191t192.5 79t192 -78.5t77 -189.5v-2q0 -112 -77.5 -191t-193.5 -79zM324 57q82 0 136 58t54 141v2q0 84 -55.5 143t-136.5 59q-82 0 -135.5 -58.5t-53.5 -141.5v-2q0 -84 55 -142.5t136 -58.5zM183 595l106 131
h68l106 -131h-66l-75 67l-75 -67h-64z" />
    <glyph glyph-name="otilde" unicode="&#xf5;" horiz-adv-x="646" 
d="M322 -12q-115 0 -191.5 78.5t-76.5 189.5v2q0 112 77.5 191t192.5 79t192 -78.5t77 -189.5v-2q0 -112 -77.5 -191t-193.5 -79zM324 57q82 0 136 58t54 141v2q0 84 -55.5 143t-136.5 59q-82 0 -135.5 -58.5t-53.5 -141.5v-2q0 -84 55 -142.5t136 -58.5zM206 586l-47 13
q15 57 37 81t58 24q24 0 71 -20t63 -20q20 0 30 10.5t22 38.5l47 -13q-15 -57 -37 -81t-58 -24q-24 0 -71 20t-63 20q-20 0 -30 -10.5t-22 -38.5z" />
    <glyph glyph-name="odieresis" unicode="&#xf6;" horiz-adv-x="646" 
d="M322 -12q-115 0 -191.5 78.5t-76.5 189.5v2q0 112 77.5 191t192.5 79t192 -78.5t77 -189.5v-2q0 -112 -77.5 -191t-193.5 -79zM324 57q82 0 136 58t54 141v2q0 84 -55.5 143t-136.5 59q-82 0 -135.5 -58.5t-53.5 -141.5v-2q0 -84 55 -142.5t136 -58.5zM366 595v95h90v-95
h-90zM190 595v95h90v-95h-90z" />
    <glyph glyph-name="oslash" unicode="&#xf8;" horiz-adv-x="646" 
d="M322 -12q-90 0 -161 53l-45 -46h-77l79 85q-64 75 -64 176v2q0 112 77.5 191t192.5 79q95 0 161 -54l45 49h78l-36 -38l-44 -48q65 -75 65 -177v-2q0 -112 -77.5 -191t-193.5 -79zM170 136l268 283q-50 42 -116 42q-82 0 -136 -59t-54 -142v-2q0 -67 38 -122zM324 56
q83 0 137 58.5t54 141.5v2q0 68 -39 122l-267 -283q47 -41 115 -41z" />
    <glyph glyph-name="ugrave" unicode="&#xf9;" horiz-adv-x="616" 
d="M276 -11q-92 0 -145 57t-53 150v321h77v-302q0 -73 37.5 -114.5t105.5 -41.5q67 0 111 45t44 117v296h76v-517h-76v90q-63 -101 -177 -101zM284 591l-113 108l80 37l95 -145h-62z" />
    <glyph glyph-name="uacute" unicode="&#xfa;" horiz-adv-x="616" 
d="M276 -11q-92 0 -145 57t-53 150v321h77v-302q0 -73 37.5 -114.5t105.5 -41.5q67 0 111 45t44 117v296h76v-517h-76v90q-63 -101 -177 -101zM266 591l95 145l80 -37l-113 -108h-62z" />
    <glyph glyph-name="ucircumflex" unicode="&#xfb;" horiz-adv-x="616" 
d="M276 -11q-92 0 -145 57t-53 150v321h77v-302q0 -73 37.5 -114.5t105.5 -41.5q67 0 111 45t44 117v296h76v-517h-76v90q-63 -101 -177 -101zM169 595l106 131h68l106 -131h-66l-75 67l-75 -67h-64z" />
    <glyph glyph-name="udieresis" unicode="&#xfc;" horiz-adv-x="616" 
d="M276 -11q-92 0 -145 57t-53 150v321h77v-302q0 -73 37.5 -114.5t105.5 -41.5q67 0 111 45t44 117v296h76v-517h-76v90q-63 -101 -177 -101zM352 595v95h90v-95h-90zM176 595v95h90v-95h-90z" />
    <glyph glyph-name="yacute" unicode="&#xfd;" horiz-adv-x="591" 
d="M166 -163q-56 0 -110 26l26 61q37 -19 81 -19q36 0 59.5 21.5t46.5 75.5l-235 515h85l188 -431l166 431h82l-217 -534q-32 -79 -72.5 -112.5t-99.5 -33.5zM267 591l95 145l80 -37l-113 -108h-62z" />
    <glyph glyph-name="thorn" unicode="&#xfe;" horiz-adv-x="664" 
d="M86 -160v890h77v-317q80 115 198 115q99 0 173 -73t74 -195v-2q0 -121 -74 -195t-173 -74q-123 0 -198 110v-259h-77zM347 58q78 0 130 54t52 145v2q0 90 -52.5 145t-129.5 55q-75 0 -131 -56.5t-56 -142.5v-2q0 -87 56 -143.5t131 -56.5z" />
    <glyph glyph-name="ydieresis" unicode="&#xff;" horiz-adv-x="591" 
d="M166 -163q-56 0 -110 26l26 61q37 -19 81 -19q36 0 59.5 21.5t46.5 75.5l-235 515h85l188 -431l166 431h82l-217 -534q-32 -79 -72.5 -112.5t-99.5 -33.5zM339 595v95h90v-95h-90zM163 595v95h90v-95h-90z" />
    <glyph glyph-name="dotlessi" unicode="&#x131;" horiz-adv-x="263" 
d="M93 0v517h77v-517h-77z" />
    <glyph glyph-name="Lslash" unicode="&#x141;" horiz-adv-x="649" 
d="M129 0v301l-75 -22v73l75 23v325h78v-301l216 66v-74l-216 -65v-253h395v-73h-473z" />
    <glyph glyph-name="lslash" unicode="&#x142;" horiz-adv-x="323" 
d="M124 0v321l-76 -24v75l76 23v335h76v-312l76 24v-75l-76 -24v-343h-76z" />
    <glyph glyph-name="OE" unicode="&#x152;" horiz-adv-x="1131" 
d="M1071 0h-631q-163 0 -267.5 99.5t-104.5 248.5v2q0 150 104.5 250t267.5 100h626v-72h-409v-239h364v-72h-364v-245h414v-72zM440 73h138v554h-138q-131 0 -210.5 -78t-79.5 -197v-2q0 -119 80 -198t210 -79z" />
    <glyph glyph-name="oe" unicode="&#x153;" horiz-adv-x="1049" 
d="M319 -12q-111 0 -188 79t-77 189v2q0 111 77.5 190.5t190.5 79.5q74 0 133.5 -37.5t92.5 -99.5q30 63 85.5 100t126.5 37q111 0 175.5 -78t64.5 -196v-12q0 -9 -1 -15h-410q8 -79 59.5 -125.5t122.5 -46.5q92 0 163 73l48 -43q-84 -97 -212 -97q-72 0 -131.5 37
t-91.5 102q-33 -63 -93 -101t-135 -38zM589 289h333q-6 74 -49.5 124t-115.5 50q-66 0 -113 -49t-55 -125zM323 57q82 0 135 58t53 141v2q0 84 -55 143t-135 59q-82 0 -135 -58.5t-53 -141.5v-2q0 -84 55 -142.5t135 -58.5z" />
    <glyph glyph-name="Scaron" unicode="&#x160;" horiz-adv-x="640" 
d="M339 -10q-162 0 -286 112l49 58q56 -51 112.5 -75t127.5 -24q70 0 113 33.5t43 85.5v2q0 51 -38 80.5t-144 52.5q-124 27 -179.5 72.5t-55.5 129.5v2q0 82 65.5 136.5t164.5 54.5q75 0 132.5 -21t113.5 -65l-46 -61q-93 76 -202 76q-68 0 -108.5 -32t-40.5 -81v-2
q0 -52 39.5 -82.5t150.5 -53.5q118 -25 173 -72t55 -126v-2q0 -89 -67 -143.5t-172 -54.5zM290 762l-106 131h66l75 -67l75 67h64l-106 -131h-68z" />
    <glyph glyph-name="scaron" unicode="&#x161;" horiz-adv-x="498" 
d="M257 -10q-119 0 -214 76l39 55q86 -66 179 -66q48 0 77.5 22t29.5 60v2q0 35 -33.5 55t-95.5 36q-28 8 -41 12.5t-38 14.5t-37.5 19.5t-27 24t-21 33.5t-6.5 42v2q0 66 49.5 107t126.5 41q100 0 186 -57l-35 -58q-77 50 -153 50q-45 0 -72.5 -21t-27.5 -54v-2
q0 -14 8 -26t18 -20t31.5 -17t34.5 -13t41 -13q29 -9 48.5 -16t44 -19.5t39 -27t24.5 -36.5t10 -49v-2q0 -72 -52 -113.5t-132 -41.5zM218 595l-106 131h66l75 -67l75 67h64l-106 -131h-68z" />
    <glyph glyph-name="Ydieresis" unicode="&#x178;" horiz-adv-x="716" 
d="M318 0v277l-291 423h96l236 -350l238 350h92l-291 -422v-278h-80zM401 759v95h90v-95h-90zM225 759v95h90v-95h-90z" />
    <glyph glyph-name="Zcaron" unicode="&#x17d;" horiz-adv-x="693" 
d="M67 0v53l453 576h-438v71h546v-53l-454 -576h454v-71h-561zM317 762l-106 131h66l75 -67l75 67h64l-106 -131h-68z" />
    <glyph glyph-name="zcaron" unicode="&#x17e;" horiz-adv-x="556" 
d="M56 0v49l343 403h-331v65h436v-49l-344 -403h344v-65h-448zM253 595l-106 131h66l75 -67l75 67h64l-106 -131h-68z" />
    <glyph glyph-name="florin" unicode="&#x192;" horiz-adv-x="514" 
d="M93 -5q-32 0 -52 4v66q17 -4 44 -4q65 0 78 76l44 236h-98v67h109l23 119q14 76 51 111t105 35q48 0 81 -11v-66q-34 10 -69 10q-39 0 -60 -21t-30 -69l-20 -108h144v-67h-156l-45 -244q-14 -70 -49.5 -102t-99.5 -32z" />
    <glyph glyph-name="circumflex" unicode="&#x2c6;" 
d="M110 595l106 131h68l106 -131h-66l-75 67l-75 -67h-64z" />
    <glyph glyph-name="caron" unicode="&#x2c7;" 
d="M216 595l-106 131h66l75 -67l75 67h64l-106 -131h-68z" />
    <glyph glyph-name="breve" unicode="&#x2d8;" 
d="M250 593q-63 0 -103 35t-45 98h56q19 -69 92 -69t92 69h56q-5 -63 -45 -98t-103 -35z" />
    <glyph glyph-name="dotaccent" unicode="&#x2d9;" 
d="M203 595v96h94v-96h-94z" />
    <glyph glyph-name="ring" unicode="&#x2da;" 
d="M250 593q-41 0 -72.5 29.5t-31.5 69.5v2q0 40 31.5 69.5t72.5 29.5t72.5 -29.5t31.5 -69.5v-2q0 -40 -31.5 -69.5t-72.5 -29.5zM250 631q25 0 43.5 18t18.5 43v2q0 25 -18 43t-44 18t-44 -18t-18 -43v-2q0 -25 18.5 -43t43.5 -18z" />
    <glyph glyph-name="ogonek" unicode="&#x2db;" 
d="M360 -123v-41q-85 -5 -131 25t-46 83q0 33 14 66h60q-6 -26 -6 -51q0 -76 109 -82z" />
    <glyph glyph-name="tilde" unicode="&#x2dc;" 
d="M133 586l-47 13q15 57 37 81t58 24q24 0 71 -20t63 -20q19 0 29.5 10.5t22.5 38.5l47 -13q-15 -57 -37 -81t-58 -24q-24 0 -71 20t-63 20q-19 0 -29.5 -10.5t-22.5 -38.5z" />
    <glyph glyph-name="hungarumlaut" unicode="&#x2dd;" 
d="M248 595l95 145l75 -37l-109 -108h-61zM84 595l95 145l75 -37l-108 -108h-62z" />
    <glyph glyph-name="uni037E" unicode="&#x37e;" horiz-adv-x="255" 
d="M82 412v105h92v-105h-92zM63 -122l-12 35q73 27 67 87h-36v105h92v-90q0 -60 -26.5 -92t-84.5 -45z" />
    <glyph glyph-name="tonos" unicode="&#x384;" 
d="M181 595l95 145l80 -37l-113 -108h-62z" />
    <glyph glyph-name="dieresistonos" unicode="&#x385;" 
d="M239 595l35 130l74 -10l-47 -120h-62zM374 595v85h80v-85h-80zM114 595v85h80v-85h-80z" />
    <glyph glyph-name="Alphatonos" unicode="&#x386;" horiz-adv-x="790" 
d="M39 0l319 705h74l319 -705h-85l-82 185h-381l-83 -185h-81zM234 256h319l-159 357zM35 572l95 145l80 -37l-113 -108h-62z" />
    <glyph glyph-name="anoteleia" unicode="&#x387;" horiz-adv-x="225" 
d="M68 415v101h90v-101h-90z" />
    <glyph glyph-name="Epsilontonos" unicode="&#x388;" horiz-adv-x="670" 
d="M-152 572l95 145l80 -37l-113 -108h-62zM99 0v700h506v-72h-427v-239h382v-72h-382v-245h432v-72h-511z" />
    <glyph glyph-name="Etatonos" unicode="&#x389;" horiz-adv-x="760" 
d="M99 0v700h79v-311h404v311h79v-700h-79v315h-404v-315h-79zM-152 572l95 145l80 -37l-113 -108h-62z" />
    <glyph glyph-name="Iotatonos" unicode="&#x38a;" horiz-adv-x="291" 
d="M106 0v700h79v-700h-79zM-152 572l95 145l80 -37l-113 -108h-62z" />
    <glyph glyph-name="Omicrontonos" unicode="&#x38c;" horiz-adv-x="850" 
d="M-75 573l95 145l80 -37l-113 -108h-62zM424 -12q-156 0 -256 105.5t-100 254.5v2q0 149 101 255.5t257 106.5t256.5 -106t100.5 -255t-101.5 -256t-257.5 -107zM426 61q119 0 196.5 83t77.5 204v2q0 121 -78.5 205t-197.5 84t-196.5 -83t-77.5 -204v-2q0 -121 78.5 -205
t197.5 -84z" />
    <glyph glyph-name="Upsilontonos" unicode="&#x38e;" horiz-adv-x="716" 
d="M-175 572l95 145l80 -37l-113 -108h-62zM318 0v277l-291 423h96l236 -350l238 350h92l-291 -422v-278h-80z" />
    <glyph glyph-name="Omegatonos" unicode="&#x38f;" horiz-adv-x="849" 
d="M-74 572l95 145l80 -37l-113 -108h-62zM485 0v70q98 26 156 109t58 186q0 116 -74.5 195t-200.5 79q-125 0 -199.5 -79t-74.5 -195q0 -103 59 -186.5t158 -108.5v-70h-285v72h155q-75 36 -122 114.5t-47 178.5q0 151 97.5 249t258.5 98q162 0 260 -98t98 -249
q0 -97 -46 -175.5t-122 -117.5h155v-72h-284z" />
    <glyph glyph-name="iotadieresistonos" unicode="&#x390;" horiz-adv-x="263" 
d="M93 0v517h77v-517h-77zM100 595l35 130l74 -10l-47 -120h-62zM235 595v85h80v-85h-80zM-25 595v85h80v-85h-80z" />
    <glyph glyph-name="Alpha" unicode="&#x391;" horiz-adv-x="790" 
d="M39 0l319 705h74l319 -705h-85l-82 185h-381l-83 -185h-81zM234 256h319l-159 357z" />
    <glyph glyph-name="Beta" unicode="&#x392;" horiz-adv-x="722" 
d="M99 0v700h298q119 0 183 -62q45 -47 45 -112v-2q0 -114 -111 -162q150 -45 150 -169v-2q0 -89 -69 -140t-185 -51h-311zM177 388h207q73 0 117 32.5t44 92.5v2q0 53 -40.5 83.5t-114.5 30.5h-213v-241zM177 71h235q80 0 126 33.5t46 91.5v2q0 58 -47.5 89t-138.5 31h-221
v-247z" />
    <glyph glyph-name="Gamma" unicode="&#x393;" horiz-adv-x="621" 
d="M99 0v700h473v-73h-394v-627h-79z" />
    <glyph glyph-name="uni0394" unicode="&#x394;" horiz-adv-x="785" 
d="M630 72l-239 540l-239 -540h478zM39 0l316 705h75l316 -705h-707z" />
    <glyph glyph-name="Epsilon" unicode="&#x395;" horiz-adv-x="670" 
d="M99 0v700h506v-72h-427v-239h382v-72h-382v-245h432v-72h-511z" />
    <glyph glyph-name="Zeta" unicode="&#x396;" horiz-adv-x="693" 
d="M67 0v53l453 576h-438v71h546v-53l-454 -576h454v-71h-561z" />
    <glyph glyph-name="Eta" unicode="&#x397;" horiz-adv-x="760" 
d="M99 0v700h79v-311h404v311h79v-700h-79v315h-404v-315h-79z" />
    <glyph glyph-name="Theta" unicode="&#x398;" horiz-adv-x="850" 
d="M782 350q0 -149 -101 -255.5t-257 -106.5t-256 105.5t-100 254.5v2q0 149 101 255.5t257 106.5t256.5 -106t100.5 -255zM700 348v2q0 121 -78.5 205t-197.5 84t-196.5 -83t-77.5 -204v-2q0 -121 78.5 -205t197.5 -84t196.5 83t77.5 204zM610 316h-370v75h370v-75z" />
    <glyph glyph-name="Iota" unicode="&#x399;" horiz-adv-x="291" 
d="M106 0v700h79v-700h-79z" />
    <glyph glyph-name="Kappa" unicode="&#x39a;" horiz-adv-x="719" 
d="M99 0v700h79v-418l402 418h102l-300 -306l313 -394h-99l-269 339l-149 -151v-188h-79z" />
    <glyph glyph-name="Lambda" unicode="&#x39b;" horiz-adv-x="764" 
d="M381 608l-253 -608h-81l298 705h75l298 -705h-85z" />
    <glyph glyph-name="Mu" unicode="&#x39c;" horiz-adv-x="868" 
d="M99 0v700h80l255 -382l255 382h80v-700h-79v567l-255 -375h-4l-255 374v-566h-77z" />
    <glyph glyph-name="Nu" unicode="&#x39d;" horiz-adv-x="790" 
d="M99 0v700h74l441 -561v561h77v-700h-63l-452 574v-574h-77z" />
    <glyph glyph-name="Xi" unicode="&#x39e;" horiz-adv-x="698" 
d="M67 622v78h563v-78h-563zM62 0v78h573v-78h-573zM101 315v79h495v-79h-495z" />
    <glyph glyph-name="Omicron" unicode="&#x39f;" horiz-adv-x="850" 
d="M424 -12q-156 0 -256 105.5t-100 254.5v2q0 149 101 255.5t257 106.5t256.5 -106t100.5 -255t-101.5 -256t-257.5 -107zM426 61q119 0 196.5 83t77.5 204v2q0 121 -78.5 205t-197.5 84t-196.5 -83t-77.5 -204v-2q0 -121 78.5 -205t197.5 -84z" />
    <glyph glyph-name="Pi" unicode="&#x3a0;" horiz-adv-x="751" 
d="M99 0v700h553v-700h-79v627h-395v-627h-79z" />
    <glyph glyph-name="Rho" unicode="&#x3a1;" horiz-adv-x="668" 
d="M99 0v700h262q119 0 190.5 -59.5t71.5 -162.5v-2q0 -109 -78.5 -169t-196.5 -60h-170v-247h-79zM178 319h173q87 0 139.5 42.5t52.5 111.5v2q0 73 -50.5 112.5t-137.5 39.5h-177v-308z" />
    <glyph glyph-name="Sigma" unicode="&#x3a3;" horiz-adv-x="681" 
d="M83 642v58h532v-71h-419l234 -262l-254 -295h448v-72h-557v53l264 308z" />
    <glyph glyph-name="Tau" unicode="&#x3a4;" horiz-adv-x="648" 
d="M284 0v627h-235v73h550v-73h-235v-627h-80z" />
    <glyph glyph-name="Upsilon" unicode="&#x3a5;" horiz-adv-x="716" 
d="M318 0v277l-291 423h96l236 -350l238 350h92l-291 -422v-278h-80z" />
    <glyph glyph-name="Phi" unicode="&#x3a6;" horiz-adv-x="899" 
d="M410 128v456q-123 -5 -196 -66.5t-73 -162.5v-2q0 -100 73 -159t196 -66zM488 584v-456q124 5 196.5 63.5t72.5 159.5v2q0 100 -73.5 162.5t-195.5 68.5zM488 649q155 -7 252.5 -85t97.5 -211q0 -131 -97.5 -207t-252.5 -83v-65h-78v65q-157 7 -253.5 81.5t-96.5 206.5v2
q0 133 97 210.5t253 85.5v53h78v-53z" />
    <glyph glyph-name="Chi" unicode="&#x3a7;" horiz-adv-x="725" 
d="M46 0l269 357l-259 343h93l215 -286l213 286h92l-259 -342l269 -358h-94l-224 301l-224 -301h-91z" />
    <glyph glyph-name="Psi" unicode="&#x3a8;" horiz-adv-x="827" 
d="M748 700v-270q0 -144 -82 -219.5t-214 -79.5v-131h-78v131q-132 4 -213 79t-81 220v270h77v-268q0 -110 60 -169.5t157 -63.5v501h78v-501q99 4 158.5 63.5t59.5 171.5v266h78z" />
    <glyph glyph-name="uni03A9" unicode="&#x3a9;" horiz-adv-x="849" 
d="M485 0v70q98 26 156 109t58 186q0 116 -74.5 195t-200.5 79q-125 0 -199.5 -79t-74.5 -195q0 -103 59 -186.5t158 -108.5v-70h-285v72h155q-75 36 -122 114.5t-47 178.5q0 151 97.5 249t258.5 98q162 0 260 -98t98 -249q0 -97 -46 -175.5t-122 -117.5h155v-72h-284z" />
    <glyph glyph-name="Iotadieresis" unicode="&#x3aa;" horiz-adv-x="291" 
d="M106 0v700h79v-700h-79zM190 762v95h90v-95h-90zM14 762v95h90v-95h-90z" />
    <glyph glyph-name="Upsilondieresis" unicode="&#x3ab;" horiz-adv-x="716" 
d="M318 0v277l-291 423h96l236 -350l238 350h92l-291 -422v-278h-80zM401 758v95h90v-95h-90zM225 758v95h90v-95h-90z" />
    <glyph glyph-name="alphatonos" unicode="&#x3ac;" horiz-adv-x="664" 
d="M501 0v104q-78 -115 -198 -115q-99 0 -173 73t-74 195v2q0 121 74 195t173 74q122 0 198 -110v99h77v-517h-77zM317 58q75 0 131 56.5t56 143.5v2q0 86 -56 142.5t-131 56.5q-78 0 -130 -54t-52 -145v-2q0 -89 53 -144.5t129 -55.5zM286 595l95 145l80 -37l-113 -108h-62
z" />
    <glyph glyph-name="epsilontonos" unicode="&#x3ad;" horiz-adv-x="572" 
d="M263 595l95 145l80 -37l-113 -108h-62zM187 273v2q-52 9 -81.5 40t-29.5 70q0 71 64.5 107t156.5 36q130 0 220 -78q-6 -7 -25 -27.5t-21 -22.5q-76 63 -176 63q-60 0 -99.5 -20.5t-39.5 -65.5q0 -33 33 -55t91 -22h107v-58h-112q-63 0 -102.5 -24.5t-39.5 -69.5
q0 -96 163 -96q108 0 190 77l44 -47q-102 -95 -236 -95q-240 0 -240 154q0 50 38 85t95 47z" />
    <glyph glyph-name="etatonos" unicode="&#x3ae;" horiz-adv-x="616" 
d="M86 0v517h77v-90q61 101 177 101q92 0 145 -56.5t53 -150.5v-321h-77v302q0 73 -37.5 114.5t-105.5 41.5q-67 0 -111 -45t-44 -117v-296h-77zM283 595l95 145l80 -37l-113 -108h-62z" />
    <glyph glyph-name="iotatonos" unicode="&#x3af;" horiz-adv-x="263" 
d="M93 0v517h77v-517h-77zM104 595l95 145l80 -37l-113 -108h-62z" />
    <glyph glyph-name="upsilondieresistonos" unicode="&#x3b0;" horiz-adv-x="600" 
d="M522 517v-303q0 -101 -55.5 -163.5t-166.5 -62.5q-112 0 -167 62t-55 163v304h77v-290q0 -79 35.5 -124.5t109.5 -45.5t110 45.5t36 124.5v290h76zM259 595l35 130l74 -10l-47 -120h-62zM394 595v85h80v-85h-80zM134 595v85h80v-85h-80z" />
    <glyph glyph-name="alpha" unicode="&#x3b1;" horiz-adv-x="664" 
d="M501 0v104q-78 -115 -198 -115q-99 0 -173 73t-74 195v2q0 121 74 195t173 74q122 0 198 -110v99h77v-517h-77zM317 58q75 0 131 56.5t56 143.5v2q0 86 -56 142.5t-131 56.5q-78 0 -130 -54t-52 -145v-2q0 -89 53 -144.5t129 -55.5z" />
    <glyph glyph-name="beta" unicode="&#x3b2;" horiz-adv-x="663" 
d="M162 495v-224q0 -103 57.5 -159.5t132.5 -56.5q81 0 128.5 41.5t47.5 114.5q0 82 -48.5 123t-125.5 41h-72v64h75q49 0 84 34.5t35 83.5q0 53 -38.5 84t-110.5 31q-77 0 -121 -44.5t-44 -132.5zM444 412q77 -16 120.5 -67t43.5 -135q0 -96 -63.5 -158.5t-175.5 -62.5
q-69 0 -123 30.5t-84 82.5v-262h-76v657q0 111 63 175.5t181 64.5q103 0 163.5 -47t60.5 -126q0 -51 -29.5 -94t-80.5 -58z" />
    <glyph glyph-name="gamma" unicode="&#x3b3;" horiz-adv-x="587" 
d="M255 2l-220 515h85l174 -433l175 433h83l-220 -515v-162h-77v162z" />
    <glyph glyph-name="delta" unicode="&#x3b4;" horiz-adv-x="642" 
d="M321 56q87 0 137.5 53t50.5 133q0 77 -52.5 132t-136.5 55q-86 0 -137 -53t-51 -132q0 -80 53.5 -134t135.5 -54zM224 664l266 -219q41 -35 69.5 -88t28.5 -114q0 -109 -74 -182t-194 -73q-116 0 -191.5 73.5t-75.5 181.5q0 104 73 174t179 70q19 0 28 -2l-223 179v66
h408v-66h-294z" />
    <glyph glyph-name="epsilon" unicode="&#x3b5;" horiz-adv-x="572" 
d="M187 273v2q-52 9 -81.5 40t-29.5 70q0 71 64.5 107t156.5 36q130 0 220 -78q-6 -7 -25 -27.5t-21 -22.5q-76 63 -176 63q-60 0 -99.5 -20.5t-39.5 -65.5q0 -33 33 -55t91 -22h107v-58h-112q-63 0 -102.5 -24.5t-39.5 -69.5q0 -96 163 -96q108 0 190 77l44 -47
q-102 -95 -236 -95q-240 0 -240 154q0 50 38 85t95 47z" />
    <glyph glyph-name="zeta" unicode="&#x3b6;" horiz-adv-x="505" 
d="M414 -52q0 34 -25.5 43.5t-113.5 13.5q-117 5 -169.5 49t-52.5 131q0 103 97 227t254 249h-307v69h401v-61q-80 -67 -135.5 -119t-113 -117t-87 -126.5t-29.5 -118.5q0 -65 37.5 -87t133.5 -28q88 -4 135.5 -25.5t47.5 -78.5q0 -32 -25 -129h-69q21 79 21 108z" />
    <glyph glyph-name="eta" unicode="&#x3b7;" horiz-adv-x="616" 
d="M86 0v517h77v-90q61 101 177 101q92 0 145 -56.5t53 -150.5v-321h-77v302q0 73 -37.5 114.5t-105.5 41.5q-67 0 -111 -45t-44 -117v-296h-77z" />
    <glyph glyph-name="theta" unicode="&#x3b8;" horiz-adv-x="637" 
d="M573 362q0 -163 -65.5 -268.5t-190.5 -105.5t-189.5 104t-64.5 267v4q0 162 65.5 268t189.5 106q126 0 190.5 -105.5t64.5 -269.5zM494 403q-4 119 -49 194.5t-128 75.5t-127.5 -75t-48.5 -195h353zM140 340q2 -128 47 -207.5t131 -79.5q87 0 131 79.5t46 207.5h-355z
" />
    <glyph glyph-name="iota" unicode="&#x3b9;" horiz-adv-x="263" 
d="M93 0v517h77v-517h-77z" />
    <glyph glyph-name="kappa" unicode="&#x3ba;" horiz-adv-x="569" 
d="M86 0v517h77v-291l279 291h96l-217 -222l224 -295h-92l-185 241l-105 -106v-135h-77z" />
    <glyph glyph-name="lambda" unicode="&#x3bb;" horiz-adv-x="576" 
d="M263 516l-35 80q-33 76 -79 76q-21 0 -51 -6v66q21 5 53 5q48 0 79 -26t54 -82l262 -629h-82l-168 425l-179 -425h-82z" />
    <glyph glyph-name="uni03BC" unicode="&#x3bc;" horiz-adv-x="624" 
d="M163 -160h-77v677h77v-291q0 -68 40 -117.5t107 -49.5q64 0 107.5 45.5t43.5 116.5v296h77v-517h-77v90q-52 -99 -150 -99q-54 0 -92 29.5t-56 66.5v-247z" />
    <glyph glyph-name="nu" unicode="&#x3bd;" horiz-adv-x="587" 
d="M259 -4l-224 521h85l174 -429l175 429h83l-225 -521h-68z" />
    <glyph glyph-name="xi" unicode="&#x3be;" horiz-adv-x="528" 
d="M464 377h-117q-106 0 -160 -41.5t-54 -116.5q0 -63 39.5 -97t130.5 -48q35 -5 58 -9.5t53.5 -13.5t48.5 -20t31 -29t13 -40q0 -38 -22 -122h-69q19 68 19 97q0 12 -4.5 21.5t-15 16t-20 11t-27.5 8.5t-30.5 6t-35 5.5t-34.5 5.5q-117 19 -166 69.5t-49 133.5q0 67 45 124
t142 73q-69 14 -99 52t-30 77q0 44 29 79.5t90 50.5h-140v60h427v-66h-102q-118 0 -171 -32t-53 -85q0 -38 25.5 -62.5t59 -33t73.5 -8.5h115v-66z" />
    <glyph glyph-name="omicron" unicode="&#x3bf;" horiz-adv-x="646" 
d="M322 -12q-115 0 -191.5 78.5t-76.5 189.5v2q0 111 77.5 190.5t192.5 79.5t192 -78.5t77 -189.5v-2q0 -111 -78 -190.5t-193 -79.5zM324 57q83 0 136.5 58t53.5 141v2q0 84 -55.5 143t-136.5 59q-82 0 -135.5 -58.5t-53.5 -141.5v-2q0 -84 55 -142.5t136 -58.5z" />
    <glyph glyph-name="pi" unicode="&#x3c0;" horiz-adv-x="611" 
d="M86 0v517h439v-517h-77v452h-285v-452h-77z" />
    <glyph glyph-name="rho" unicode="&#x3c1;" horiz-adv-x="638" 
d="M323 55q79 0 130.5 54.5t51.5 147.5t-50.5 149.5t-131.5 56.5q-79 0 -131.5 -57.5t-52.5 -149.5q0 -88 54 -144.5t130 -56.5zM139 95v-255h-76v417q0 122 73 196.5t191 74.5q109 0 183 -72.5t74 -195.5q0 -122 -76.5 -196.5t-175.5 -74.5q-125 0 -193 106z" />
    <glyph glyph-name="uni03C2" unicode="&#x3c2;" horiz-adv-x="567" 
d="M348 73q60 -14 88.5 -40.5t28.5 -70.5q0 -32 -22 -122h-70q19 76 19 104q0 51 -84 69q-135 28 -194.5 88.5t-59.5 170.5t76 183t188 73q123 0 207 -93l-52 -53q-36 38 -72 58t-85 20q-79 0 -131 -53t-52 -134q0 -84 46.5 -128t168.5 -72z" />
    <glyph glyph-name="sigma" unicode="&#x3c3;" horiz-adv-x="666" 
d="M325 57q85 0 135 57.5t50 142.5q0 83 -51.5 138.5t-135.5 55.5q-85 0 -137.5 -55.5t-52.5 -139.5q0 -83 54 -141t138 -58zM617 517v-66h-153q60 -24 93 -77.5t33 -118.5q0 -111 -74 -189t-192 -78q-117 0 -193.5 78t-76.5 189t76 186.5t195 75.5h292z" />
    <glyph glyph-name="tau" unicode="&#x3c4;" horiz-adv-x="464" 
d="M194 0v449h-166v68h408v-68h-165v-449h-77z" />
    <glyph glyph-name="upsilon" unicode="&#x3c5;" horiz-adv-x="600" 
d="M522 517v-303q0 -101 -55.5 -163.5t-166.5 -62.5q-112 0 -167 62t-55 163v304h77v-290q0 -79 35.5 -124.5t109.5 -45.5t110 45.5t36 124.5v290h76z" />
    <glyph glyph-name="phi" unicode="&#x3c6;" horiz-adv-x="776" 
d="M425 52q218 15 218 205q0 97 -56 149t-162 57v-411zM350 -12q-148 7 -222 75.5t-74 191.5q0 202 210 262l19 -62q-151 -40 -151 -200q0 -189 218 -202v474q16 1 48 1q150 0 237 -68.5t87 -202.5q0 -120 -74.5 -190t-222.5 -78v-149h-75v148z" />
    <glyph glyph-name="chi" unicode="&#x3c7;" horiz-adv-x="574" 
d="M39 0l203 263l-195 254h88l153 -200l153 200h86l-196 -252l204 -265h-89l-160 211l-161 -211h-86z" />
    <glyph glyph-name="psi" unicode="&#x3c8;" horiz-adv-x="754" 
d="M677 220q0 -99 -68 -164.5t-195 -67.5v-148h-75v148q-127 3 -194.5 67t-67.5 165v297h76v-285q0 -78 49 -127t137 -52v620h75v-620q89 3 137.5 50.5t48.5 126.5v287h77v-297z" />
    <glyph glyph-name="omega" unicode="&#x3c9;" horiz-adv-x="821" 
d="M766 245q0 -123 -54 -190t-147 -67q-109 0 -155 112q-44 -112 -156 -112q-95 0 -147.5 66.5t-52.5 190.5t65 202t163 81v-69q-53 -5 -88 -41.5t-48 -81t-13 -93.5q0 -91 31.5 -139t92.5 -48q50 0 82.5 36.5t32.5 113.5v164h76v-164q0 -76 32.5 -113t81.5 -37q61 0 93 48
t32 139q0 49 -13.5 93.5t-48.5 81t-88 41.5v69q100 -4 164.5 -81t64.5 -202z" />
    <glyph glyph-name="iotadieresis" unicode="&#x3ca;" horiz-adv-x="263" 
d="M93 0v517h77v-517h-77zM177 595v95h90v-95h-90zM1 595v95h90v-95h-90z" />
    <glyph glyph-name="upsilondieresis" unicode="&#x3cb;" horiz-adv-x="600" 
d="M522 517v-303q0 -101 -55.5 -163.5t-166.5 -62.5q-112 0 -167 62t-55 163v304h77v-290q0 -79 35.5 -124.5t109.5 -45.5t110 45.5t36 124.5v290h76zM349 595v95h90v-95h-90zM173 595v95h90v-95h-90z" />
    <glyph glyph-name="omicrontonos" unicode="&#x3cc;" horiz-adv-x="646" 
d="M289 595l95 145l80 -37l-113 -108h-62zM322 -12q-115 0 -191.5 78.5t-76.5 189.5v2q0 111 77.5 190.5t192.5 79.5t192 -78.5t77 -189.5v-2q0 -111 -78 -190.5t-193 -79.5zM324 57q83 0 136.5 58t53.5 141v2q0 84 -55.5 143t-136.5 59q-82 0 -135.5 -58.5t-53.5 -141.5v-2
q0 -84 55 -142.5t136 -58.5z" />
    <glyph glyph-name="upsilontonos" unicode="&#x3cd;" horiz-adv-x="600" 
d="M262 595l95 145l80 -37l-113 -108h-62zM522 517v-303q0 -101 -55.5 -163.5t-166.5 -62.5q-112 0 -167 62t-55 163v304h77v-290q0 -79 35.5 -124.5t109.5 -45.5t110 45.5t36 124.5v290h76z" />
    <glyph glyph-name="omegatonos" unicode="&#x3ce;" horiz-adv-x="821" 
d="M766 245q0 -123 -54 -190t-147 -67q-109 0 -155 112q-44 -112 -156 -112q-95 0 -147.5 66.5t-52.5 190.5t65 202t163 81v-69q-53 -5 -88 -41.5t-48 -81t-13 -93.5q0 -91 31.5 -139t92.5 -48q50 0 82.5 36.5t32.5 113.5v164h76v-164q0 -76 32.5 -113t81.5 -37q61 0 93 48
t32 139q0 49 -13.5 93.5t-48.5 81t-88 41.5v69q100 -4 164.5 -81t64.5 -202zM378 595l95 145l80 -37l-113 -108h-62z" />
    <glyph glyph-name="endash" unicode="&#x2013;" horiz-adv-x="528" 
d="M65 262v77h398v-77h-398z" />
    <glyph glyph-name="emdash" unicode="&#x2014;" horiz-adv-x="898" 
d="M65 262v77h768v-77h-768z" />
    <glyph glyph-name="quoteleft" unicode="&#x2018;" horiz-adv-x="245" 
d="M72 478v90q0 60 26 92t84 45l12 -35q-38 -14 -53.5 -34.5t-13.5 -52.5h37v-105h-92z" />
    <glyph glyph-name="quoteright" unicode="&#x2019;" horiz-adv-x="245" 
d="M63 473l-12 35q73 27 67 87h-36v105h92v-90q0 -60 -26.5 -92t-84.5 -45z" />
    <glyph glyph-name="quotesinglbase" unicode="&#x201a;" horiz-adv-x="245" 
d="M58 -122l-12 35q73 27 67 87h-36v105h92v-90q0 -60 -26.5 -92t-84.5 -45z" />
    <glyph glyph-name="quotedblleft" unicode="&#x201c;" horiz-adv-x="445" 
d="M272 478v90q0 60 26 92t84 45l12 -35q-38 -14 -53.5 -34.5t-13.5 -52.5h36v-105h-91zM72 478v90q0 60 26 92t84 45l12 -35q-38 -14 -53.5 -34.5t-13.5 -52.5h37v-105h-92z" />
    <glyph glyph-name="quotedblright" unicode="&#x201d;" horiz-adv-x="445" 
d="M263 473l-12 35q73 27 67 87h-36v105h91v-90q0 -60 -26 -92t-84 -45zM63 473l-12 35q73 27 67 87h-36v105h92v-90q0 -60 -26.5 -92t-84.5 -45z" />
    <glyph glyph-name="quotedblbase" unicode="&#x201e;" horiz-adv-x="445" 
d="M258 -122l-12 35q73 27 67 87h-36v105h91v-90q0 -60 -26 -92t-84 -45zM58 -122l-12 35q73 27 67 87h-36v105h92v-90q0 -60 -26.5 -92t-84.5 -45z" />
    <glyph glyph-name="dagger" unicode="&#x2020;" horiz-adv-x="410" 
d="M178 238l6 282l-124 -8v55l123 -8l-9 141h62l-9 -141l123 8v-55l-124 8l6 -282h-54z" />
    <glyph glyph-name="daggerdbl" unicode="&#x2021;" horiz-adv-x="430" 
d="M184 0l9 141l-123 -8v55l124 -8l-6 170l6 170l-124 -8v55l123 -8l-9 141h62l-9 -141l123 8v-55l-124 8l6 -170l-6 -170l124 8v-55l-123 8l9 -141h-62z" />
    <glyph glyph-name="bullet" unicode="&#x2022;" horiz-adv-x="478" 
d="M239 221q-54 0 -92.5 38t-38.5 92v2q0 54 39 92t92 38q52 0 91.5 -38.5t39.5 -91.5v-2q0 -54 -38.5 -92t-92.5 -38z" />
    <glyph glyph-name="ellipsis" unicode="&#x2026;" horiz-adv-x="723" 
d="M557 0v103h90v-103h-90zM317 0v103h89v-103h-89zM77 0v103h89v-103h-89z" />
    <glyph glyph-name="perthousand" unicode="&#x2030;" horiz-adv-x="1211" 
d="M210 350q-69 0 -113.5 52.5t-44.5 124.5v2q0 73 45 126t115 53q68 0 112.5 -52.5t44.5 -124.5v-2q0 -73 -45 -126t-114 -53zM124 0l514 700h71l-513 -700h-72zM999 -8q-68 0 -112.5 52.5t-44.5 124.5v2q0 73 45 126t114 53q70 0 113.5 -52.5t43.5 -124.5v-2
q0 -74 -44.5 -126.5t-114.5 -52.5zM622 -8q-68 0 -112.5 52.5t-44.5 124.5v2q0 73 45 126t114 53q70 0 113.5 -52.5t43.5 -124.5v-2q0 -74 -44.5 -126.5t-114.5 -52.5zM212 406q40 0 65.5 35t25.5 86v2q0 51 -27.5 87t-65.5 36q-40 0 -65.5 -35t-25.5 -86v-2q0 -52 27 -87.5
t66 -35.5zM1001 48q40 0 65.5 35t25.5 86v2q0 52 -27 87.5t-66 35.5q-40 0 -65.5 -35t-25.5 -86v-2q0 -52 27 -87.5t66 -35.5zM624 48q40 0 65.5 35t25.5 86v2q0 52 -27 87.5t-66 35.5q-40 0 -65.5 -35t-25.5 -86v-2q0 -52 27 -87.5t66 -35.5z" />
    <glyph glyph-name="guilsinglleft" unicode="&#x2039;" horiz-adv-x="328" 
d="M210 41l-162 214v8l162 213l59 -33l-135 -183l135 -185z" />
    <glyph glyph-name="guilsinglright" unicode="&#x203a;" horiz-adv-x="328" 
d="M117 41l-58 33l135 184l-135 184l58 34l162 -213v-8z" />
    <glyph glyph-name="fraction" unicode="&#x2044;" horiz-adv-x="429" 
d="M-68 -98l467 856h76l-467 -856h-76z" />
    <glyph glyph-name="Euro" unicode="&#x20ac;" horiz-adv-x="720" 
d="M430 -12q-105 0 -180.5 68t-102.5 181h-91v63h81q-2 16 -2 23v25v2q0 35 4 58h-83v62h94q28 107 102.5 174.5t172.5 67.5q149 0 241 -137l-60 -43q-41 57 -82 83t-102 26q-65 0 -116 -47t-75 -124h257v-62h-270q-4 -21 -4 -56v-2q0 -18 2 -50h272v-63h-259
q24 -83 77 -130.5t127 -47.5q56 0 97.5 29t80.5 86l57 -40q-47 -70 -103 -108t-135 -38z" />
    <glyph glyph-name="uni2117" unicode="&#x2117;" horiz-adv-x="830" 
d="M414 -12q-151 0 -256 105.5t-105 254.5v2q0 148 105.5 255t257.5 107q151 0 256 -105.5t105 -254.5v-2q0 -148 -105.5 -255t-257.5 -107zM414 19q140 0 235 97.5t95 233.5v2q0 137 -94.5 233t-233.5 96q-140 0 -235 -97.5t-95 -233.5v-2q0 -137 94.5 -233t233.5 -96z
M292 172v371h146q67 0 105.5 -31.5t38.5 -88.5v-2q0 -60 -43.5 -92t-107.5 -32h-83v-125h-56zM348 347h84q43 0 68.5 19t25.5 54v2q0 71 -93 71h-85v-146z" />
    <glyph glyph-name="trademark" unicode="&#x2122;" horiz-adv-x="690" 
d="M336 392v308h47l110 -169l109 169h46v-308h-43v236l-110 -167h-6l-109 167v-236h-44zM125 392v266h-99v42h242v-42h-99v-266h-44z" />
    <glyph glyph-name="Omega" unicode="&#x2126;" horiz-adv-x="849" 
d="M485 0v70q98 26 156 109t58 186q0 116 -74.5 195t-200.5 79q-125 0 -199.5 -79t-74.5 -195q0 -103 59 -186.5t158 -108.5v-70h-285v72h155q-75 36 -122 114.5t-47 178.5q0 151 97.5 249t258.5 98q162 0 260 -98t98 -249q0 -97 -46 -175.5t-122 -117.5h155v-72h-284z" />
    <glyph glyph-name="Delta" unicode="&#x2206;" horiz-adv-x="785" 
d="M630 72l-239 540l-239 -540h478zM39 0l316 705h75l316 -705h-707z" />
    <glyph glyph-name="f_f" unicode="&#xfb00;" horiz-adv-x="735" 
d="M483 0v449h-71v67h71v45q0 89 44 133q41 40 111 40q50 0 85 -13v-67q-44 13 -74 13q-90 0 -90 -110v-42h163v-66h-163v-449h-76zM115 0v449h-71v67h71v45q0 88 45 133q40 40 111 40q49 0 85 -13v-67q-46 13 -75 13q-90 0 -90 -110v-42h164v-66h-163v-449h-77z" />
    <glyph glyph-name="f_f_i" unicode="&#xfb03;" horiz-adv-x="998" 
d="M823 630v85h87v-85h-87zM483 0v449h-71v67h71v45q0 89 44 133q41 40 111 40q50 0 85 -13v-67q-44 13 -74 13q-90 0 -90 -110v-42h163v-66h-163v-449h-76zM115 0v449h-71v67h71v45q0 88 45 133q40 40 111 40q49 0 85 -13v-67q-46 13 -75 13q-90 0 -90 -110v-42h164v-66
h-163v-449h-77zM828 0v517h77v-517h-77z" />
    <glyph glyph-name="f_f_l" unicode="&#xfb04;" horiz-adv-x="998" 
d="M483 0v449h-71v67h71v45q0 89 44 133q41 40 111 40q50 0 85 -13v-67q-44 13 -74 13q-90 0 -90 -110v-42h163v-66h-163v-449h-76zM115 0v449h-71v67h71v45q0 88 45 133q40 40 111 40q49 0 85 -13v-67q-46 13 -75 13q-90 0 -90 -110v-42h164v-66h-163v-449h-77zM828 0v730
h77v-730h-77z" />
    <glyph glyph-name="three.salt" horiz-adv-x="604" 
d="M306 -12q-161 0 -263 126l58 50q83 -104 207 -104q71 0 114.5 35.5t43.5 94.5v2q0 60 -49 93.5t-138 33.5h-72v68h74q73 0 119.5 35t46.5 94v2q0 54 -41 88t-109 34q-106 0 -181 -100l-58 42q92 130 241 130q100 0 164 -53t64 -134v-2q0 -116 -122 -164q141 -48 141 -167
v-2q0 -86 -66.5 -144t-173.5 -58z" />
    <glyph glyph-name="Q.salt" horiz-adv-x="850" 
d="M709 -101l-132 123q-69 -34 -153 -34q-156 0 -256 105.5t-100 254.5v2q0 149 101 255.5t257 106.5t256 -105.5t100 -254.5q1 -1 0 -2q0 -84 -33.5 -157t-95.5 -124l172 -164v-6h-116zM426 61q119 0 196.5 83t77.5 204v2q0 121 -78.5 205t-197.5 84t-196.5 -83t-77.5 -204
v-2q0 -121 78.5 -205t197.5 -84z" />
    <glyph glyph-name="apple" horiz-adv-x="967" 
d="M868 0h-767v750h767v-750zM859 -104h-6l-3 20l-10 -21h-2l-10 21l-3 -20h-6l6 34h1l13 -26l13 26h1zM806 -87q0 -18 -17 -18t-17 17q0 18 18 18q7 0 11.5 -5t4.5 -12zM758 -96l-1 -6q-3 -3 -10 -3q-18 0 -18 17q0 18 18 18q7 0 11 -3l-2 -5q-3 3 -9 3q-12 0 -12 -12
q0 -13 13 -13q5 0 10 4zM702 -71l-13 -19v-14h-6v14l-14 19l6 1l11 -15l9 14h7zM656 -104h-6v15h-16v-15h-6v33h6v-13h16v13h6v-33zM612 -82q0 -12 -17 -12v-10h-6v33q23 4 23 -11zM576 -104h-6l-4 8h-14l-3 -8h-6l15 34h2zM534 -104h-7l-8 11h-5v-11h-6v33q23 4 23 -10
q0 -7 -7 -10zM491 -86v-15q-5 -4 -13 -4q-18 0 -18 17q0 18 19 18q7 0 12 -4l-2 -5q-4 4 -11 4q-12 0 -12 -13q0 -12 13 -12l6 2v7h-9v5h15zM447 -87q0 -18 -17 -18t-17 17q0 18 18 18q7 0 11.5 -5t4.5 -12zM400 -82q0 -12 -17 -12v-10h-6v33q23 4 23 -11zM364 -71l-13 -19
v-14h-6v14l-14 19l6 1l11 -15l9 14h7zM323 -71v-5h-12v-28h-6v28h-12v5h30zM267 -71l-12 -34h-1l-11 23l-10 -23h-1l-12 34l6 1l7 -23l10 23h1l10 -23l7 22h6zM211 -71l-12 -34h-1l-11 23l-10 -23h-1l-12 34l6 1l7 -23l10 23h1l10 -23l7 22h6zM155 -71l-12 -34h-1l-11 23
l-10 -23h-1l-12 34l6 1l7 -23l10 23h1l10 -23l7 22h6zM716 -101q0 -4 -4 -4t-4 4t4 4t4 -4zM284 -101q0 -4 -4 -4t-4 4t4 4t4 -4zM559 686v5q0 6 -1 7q-1 -1 -17 -1t-18 1v-7q0 -4 -1 -5h2l3 5q4 4 7 4t3 -3v-23q0 -3 -2 -5q-1 -2 -3 0v-2h17v2q-1 -1 -2 0q-3 3 -3 5v23
q0 3 3 3q4 0 8 -4q2 -2 2 -5h2zM504 662v2q-2 -2 -3 0q-3 2 -3 5v21q0 4 3 5q1 1 3 0v2h-18v-1v-1q2 1 3 0q2 -2 2 -5v-9h-17v9q0 2 3 5q1 1 2 0v1v1h-17v-2q2 1 3 0q2 -2 2 -5v-21l-2 -4q-1 -1 -3 -1v-2h17v2l-2 1q-3 3 -3 4v10h17v-10q0 -3 -2 -5q-1 -2 -3 0v-2h18z
M439 662v2q-1 -1 -2 0q-3 3 -3 5v21q0 2 3 5q1 1 2 0v2h-29l-2 -10l2 -1l2 4q4 4 7 4h4q4 0 4 -3v-10h-4q-2 0 -5 3l-1 2h-2v-13h2q0 2 1 3q2 3 5 3h4v-11q0 -3 -4 -3h-4q-3 0 -8 5l-2 4l-2 -1l2 -11h30zM827 618v6h-685v-6h685zM696 540q0 15 -11.5 26.5t-25.5 11.5
q-8 0 -15.5 -5.5t-7.5 -16.5q0 -16 11 -27t26 -11q8 0 15.5 5.5t7.5 16.5zM589 537q0 12 -14 17q5 3 5 9q0 15 -21 15q-13 0 -13 -11q0 -6 5 -6q4 0 4 3q0 2 -1.5 3.5t-1.5 2.5q0 5 7 5q10 0 10 -12q0 -4 -2 -6q-16 1 -16 -6q0 -6 8 -6q6 0 11 5q6 -4 6 -15q0 -14 -12 -14
t-12 9q0 3 3 3l1 -1q2 -1 4 -1q4 0 4 5t-7 5q-9 0 -9 -10q0 -13 16 -13q25 0 25 19zM295 537q0 12 -14 17q5 3 5 9q0 15 -21 15q-13 0 -13 -11q0 -6 5 -6q4 0 4 3q0 2 -1.5 3.5t-1.5 2.5q0 5 7 5q10 0 10 -12q0 -4 -2 -6q-16 1 -16 -6q0 -6 8 -6q6 0 11 5q6 -4 6 -15
q0 -14 -12 -14t-12 9q0 3 3 3l1 -1q2 -1 4 -1q4 0 4 5t-7 5q-9 0 -9 -10q0 -13 16 -13q25 0 25 19zM821 519l-1 3q-3 0 -4 1q-4 1 -6 7l-7 35q-2 5 3 7q1 1 4 1l-1 3h-28l1 -3q3 0 4 -1q3 -1 5 -7l3 -15h-24l-3 15q-2 5 3 7q1 1 4 1l-1 3h-29l1 -3q3 0 4 -1q5 -2 6 -7l7 -35
q2 -5 -3 -7q-1 -1 -4 -1l1 -3h29l-1 3q-3 0 -4 1q-4 1 -6 7l-3 16h24l3 -16q2 -5 -3 -7q-1 -1 -4 -1l1 -3h29zM498 519l-1 3q-3 0 -4 1q-4 1 -6 7l-7 35q-2 5 3 7q1 1 4 1l-1 3h-45v-10v-7h4q-1 3 1 7q4 6 12 6h4q4 0 6 -6l3 -16h-4q-4 0 -9 5l-3 4h-3l5 -23h3q0 4 1 6
q2 5 7 5h4l3 -17q2 -5 -3 -7q-1 -1 -4 -1l1 -3h29zM203 519l-1 3q-3 0 -4 1q-4 1 -6 7l-7 35q-2 5 3 7q1 1 4 1l-1 3h-27q-20 0 -20 -15q0 -13 19 -15l-9 -16q-2 -6 -9 -7q-2 -1 -5 -1l1 -3h19l12 23q2 3 5 3l3 -15q2 -5 -3 -7q-1 -1 -4 -1l1 -3h29zM400 521q0 8 -13 9
q-4 2 -5 14.5t-5.5 23t-18.5 10.5q-5 0 -9 -3.5t-4 -6.5q0 -5 5 -5q4 0 4 6t5 6t7 -7.5t4.5 -19t9.5 -18.5q-8 0 -14 -6.5t-9 -6.5q-5 0 -5 4q0 1 1 2t1 3q0 5 -5 5t-5 -7q0 -12 15 -12q10 0 15 6.5t10 6.5q4 -7 12 -7q4 0 4 3zM827 475v6h-685v-6h685zM827 378v62h-147v-62
h36v28h11v-65h-14v-33h81v33h-14v65h11v-28h36zM648 406v34h-81v-34h11l-15 -23l-15 23h10v34h-62v-34h12l37 -46v-19h-14v-33h81v33h-15v20l37 45h14zM458 308v33h-14v65h14v34h-96q-21 0 -34 -11t-13 -29t13 -29t34 -11h30v-19h-15v-33h81zM283 308v33h-14v65h14v34h-141
v-62h41v28h33v-20h-24v-24h24v-21h-33v28h-41v-61h141zM827 271v6h-685v-6h685zM728 192q0 15 -11.5 26.5t-25.5 11.5q-8 0 -15.5 -5.5t-7.5 -16.5q0 -16 11 -27t26 -11q8 0 15.5 5.5t7.5 16.5zM201 215l2 2q-7 13 -18 13q-16 0 -14 -23q-7 23 -21 23q-12 0 -12 -12l3 -1
q0 6 8 6q16 0 24 -33q3 -10 -1 -14q-2 -2 -5 -1l1 -4h28l-1 4q-2 -2 -4 0q-3 1 -6 9q-5 18 -5 25q0 13 9 13q5 0 12 -7zM823 171l-1 3q-3 0 -4 1q-4 1 -6 7l-7 35q-2 5 3 7q1 1 4 1l-1 3h-45v-10v-7h4q-1 3 1 7q5 6 12 6h4q5 0 6 -6l3 -16h-4q-4 0 -9 5l-3 4h-3l5 -23h3
q0 4 1 6q2 5 7 5h4l3 -17q2 -5 -3 -7q-1 -1 -4 -1l1 -3h29zM621 225l-1 3h-29l1 -3q3 0 4 -1q4 -1 6 -8l5 -21q3 -10 1 -15t-12 -5q-14 0 -20 22l-4 19q-2 8 3 9q2 2 4 0v3h-24l1 -3q3 0 5 -1q4 -1 6 -8l4 -19q7 -27 28 -27q26 0 19 24l-5 22q-1 8 3 9q2 2 5 0zM523 171
l-1 3q-2 0 -3 1q-3 1 -6 9l-7 32q-2 6 3 8q1 1 5 1l-1 3h-14l-29 -42l-5 30q-2 6 3 8q1 1 4 1l-1 3h-21l1 -3q3 0 4 -1q3 -1 5 -8l8 -45l3 -1l30 44l6 -30q1 -7 -2 -9q-1 -1 -4 -1l1 -3h21zM414 171l-1 4q-2 -2 -4 0q-3 1 -6 9l-8 31q-3 8 8 10l-1 3h-30q-25 0 -25 -22
q0 -15 11 -25t24 -10h32zM307 171l-1 3q-3 0 -4 1q-4 1 -6 7l-7 35q-2 5 3 7q1 1 4 1l-1 3h-27q-20 0 -20 -15q0 -13 19 -15l-9 -16q-2 -6 -9 -7q-2 -1 -5 -1l1 -3h19l12 23q2 3 5 3l3 -15q2 -5 -3 -7q-1 -1 -4 -1l1 -3h29zM827 127v6h-685v-6h685zM694 46v2q-2 0 -3 1
q-3 1 -3 4v20q0 3 3 4l3 2v2h-10l-24 -26v18q0 3 3 5q1 1 3 1v2h-15v-2q2 0 3 -1q3 -2 3 -5v-28h3l25 28v-20l-2 -4q-1 -1 -3 -1v-2h14zM633 46v2q-1 -1 -2 0q-3 3 -3 5v21q0 2 3 5q1 1 2 0v2h-29l-2 -10l2 -1l2 4q4 4 7 4h4q4 0 4 -3v-10h-4q-2 0 -5 3l-1 2h-2v-13h2
q0 2 1 3q2 3 5 3h4v-11q0 -3 -4 -3h-4q-3 0 -8 5l-2 4l-2 -1l2 -11h30zM583 81h-15v-2l2 -1q1 -1 0 -4l-9 -19l-5 10l4 8l4 5l2 1v2h-26l1 -2l2 -1l5 -5l3 -5l-7 -13l-8 18q-1 4 0 5l2 1v2h-13v-2l2 -1q3 -4 4 -5l13 -27h1h1l8 16l9 -16h1l12 27l5 5l2 1v2zM480 79v2h-15v-2
l2 -1q1 -1 -1 -4l-6 -9l-6 9q-1 3 0 4t3 1v2h-15v-2q2 0 3 -1q1 0 5 -4l8 -12v-8q0 -3 -2 -5q-1 -1 -3 -1v-2h17v2l-2 1q-3 3 -3 5v8l8 12l5 4zM425 64q0 18 -20 18t-20 -18q0 -19 20 -19t20 19zM364 46v2l-2 1q-3 3 -3 4v20q0 2 3 5l2 1v2h-18q-13 0 -13 -9q0 -4 9 -9
l-7 -10l-5 -4q-1 -1 -3 -1v-2h11l7 12q3 4 7 4v-9l-2 -4q-1 -1 -3 -1v-2h17zM309 46v2q-2 0 -3 1q-3 1 -3 5v20q0 2 3 4q1 1 3 1v2h-18v-2q2 0 3 -1q3 -2 3 -4v-9l-4 2l-8 8l-1 3l2 1v2h-14v-2q2 0 3 -1q5 -2 5 -3l10 -9l-13 -13l-4 -3l-3 -2v-2h17v2l-2 1q-2 2 0 4l8 8l4 2
v-9q0 -4 -3 -5q-1 -1 -3 -1v-2h18zM606 -83q0 9 -11 7v-13q11 0 11 6zM525 -82q0 8 -11 6v-12q11 -2 11 6zM394 -83q0 9 -11 7v-13q11 0 11 6zM564 -92l-5 12l-5 -12h10zM800 -88q0 13 -11 13t-11 -12q0 -13 11 -13t11 12zM441 -88q0 13 -11 13t-11 -12q0 -13 11 -13t11 12z
M176 548h-5q-15 0 -15 15q0 9 8 9q7 0 9 -5zM566 553q-3 -4 -7 -4t-4 2q0 3 4 3q6 0 7 -1zM272 553q-3 -4 -7 -4t-4 2q0 3 4 3q6 0 7 -1zM684 535q0 -13 -11 -13q-9 0 -17 11.5t-8 26.5q0 14 11 14q9 0 17 -12t8 -27zM392 384h-11q-13 0 -13 11t13 11h11v-22zM280 200h-5
q-15 0 -15 15q0 9 8 9q7 0 9 -5zM716 187q0 -13 -11 -13q-9 0 -17 11.5t-8 26.5q0 14 11 14q9 0 17 -12t8 -27zM384 217l9 -35q0 -7 -4 -7h-5q-11 0 -18.5 10t-7.5 22q0 17 14 17h6q3 -1 6 -7zM553 79q5 0 0 -9q-5 9 0 9zM352 64h-3q-8 0 -8 8q0 6 7 6q4 0 4 -4v-10zM417 64
q0 -17 -12 -17t-12 17q0 16 12 16t12 -16z" />
    </font>
</defs>
</svg>
