<?xml version="1.0" standalone="no"?>
<!DOCTYPE svg PUBLIC "-//W3C//DTD SVG 1.1//EN" "http://www.w3.org/Graphics/SVG/1.1/DTD/svg11.dtd" >
<svg xmlns="http://www.w3.org/2000/svg">
<metadata>Generated by IcoMoon</metadata>
<defs>
<font id="seajets" horiz-adv-x="1024">
<font-face units-per-em="1024" ascent="960" descent="-64" />
<missing-glyph horiz-adv-x="1024" />
<glyph unicode="&#x20;" horiz-adv-x="512" d="" />
<glyph unicode="&#xe900;" glyph-name="checkIn" d="M899.835 611.849c-21.204 50.134-51.553 95.135-90.191 133.794s-83.661 68.991-133.794 90.191c-51.92 21.95-107.030 33.092-163.851 33.092-56.818 0-111.952-11.142-163.851-33.092-50.134-21.204-95.135-51.553-133.794-90.191s-68.991-83.661-90.191-133.794c-21.95-51.92-33.092-107.030-33.092-163.851 0-56.818 11.142-111.952 33.092-163.851 21.204-50.134 51.557-95.135 90.191-133.794s83.661-68.991 133.794-90.191c51.92-21.95 107.030-33.092 163.851-33.092 56.818 0 111.952 11.142 163.851 33.092 50.134 21.204 95.135 51.553 133.794 90.191s68.991 83.661 90.191 133.794c21.95 51.92 33.092 107.030 33.092 163.851s-11.142 111.955-33.092 163.851zM511.998 77.435c-204.319 0-370.567 166.227-370.567 370.567s166.227 370.567 370.567 370.567 370.567-166.227 370.567-370.567-166.223-370.567-370.567-370.567zM727.149 624.254c-7.433 7.433-17.348 11.535-27.874 11.535s-20.419-4.102-27.874-11.535l-202.197-202.197-87.652 87.652c-7.433 7.433-17.348 11.535-27.874 11.535s-20.419-4.102-27.874-11.535l-33.356-33.356c-15.365-15.365-15.365-40.361 0-55.726l148.864-148.864c7.433-7.433 17.348-11.535 27.874-11.535s20.419 4.102 27.874 11.535l263.409 263.409c7.433 7.433 11.535 17.348 11.535 27.874s-4.102 20.419-11.535 27.874l-33.363 33.356z" />
<glyph unicode="&#xe901;" glyph-name="arrow-left" d="M54.272 461.312c0-0.512 0.512-1.024 0.512-2.048 0-0.512 0.512-1.536 0.512-2.048 0.512-0.512 0.512-1.536 1.024-2.048s0.512-1.024 1.024-1.536c1.024-1.024 1.536-2.56 2.56-3.584l232.448-232.448c8.704-8.704 22.528-8.704 30.72 0 8.704 8.704 8.704 22.528 0 30.72l-194.56 194.56h822.784c12.288 0 22.016 9.728 22.016 22.016s-9.728 22.016-22.016 22.016h-822.784l194.56 194.56c8.704 8.704 8.704 22.528 0 30.72-4.096 4.096-9.728 6.656-15.36 6.656s-11.264-2.048-15.36-6.656l-232.448-231.424c-1.024-1.024-2.048-2.048-2.56-3.584-0.512-0.512-0.512-1.024-1.024-1.536s-1.024-1.536-1.024-2.048c-0.512-0.512-0.512-1.536-0.512-2.048s-0.512-1.024-0.512-2.048c-0.512-2.56-0.512-5.632 0-8.192z" />
<glyph unicode="&#xe902;" glyph-name="arrow-right" d="M972.288 469.504c0 0.512-0.512 1.024-0.512 2.048 0 0.512-0.512 1.536-0.512 2.048-0.512 0.512-0.512 1.536-1.024 2.048s-0.512 1.024-1.024 1.536c-1.024 1.024-1.536 2.56-2.56 3.584l-231.936 231.936c-8.704 8.704-22.528 8.704-30.72 0-8.704-8.704-8.704-22.528 0-30.72l194.56-194.56h-822.784c-12.288 0-22.016-9.728-22.016-22.016s9.728-22.016 22.016-22.016h822.784l-194.56-194.56c-8.704-8.704-8.704-22.528 0-30.72 4.096-4.096 9.728-6.656 15.36-6.656s11.264 2.048 15.36 6.656l231.936 231.936c1.024 1.024 2.048 2.048 2.56 3.584 0.512 0.512 0.512 1.024 1.024 1.536s1.024 1.536 1.024 2.048c0.512 0.512 0.512 1.536 0.512 2.048s0.512 1.024 0.512 2.048c1.024 2.56 1.024 5.632 0 8.192z" />
<glyph unicode="&#xe903;" glyph-name="boat" d="M432.128 674.304c0-14.848-11.776-26.624-26.624-26.624s-26.624 11.776-26.624 26.624 11.776 26.624 26.624 26.624c14.848 0 26.624-11.776 26.624-26.624zM512 700.928c14.848 0 26.624-11.776 26.624-26.624s-11.776-26.624-26.624-26.624c-14.848 0-26.624 11.776-26.624 26.624s11.776 26.624 26.624 26.624zM618.496 700.928c14.848 0 26.624-11.776 26.624-26.624s-11.776-26.624-26.624-26.624c-14.848 0-26.624 11.776-26.624 26.624s11.776 26.624 26.624 26.624zM744.96 125.952c5.12-3.584 10.24-7.68 14.848-12.8v0c3.584-3.584 7.68-6.656 12.288-8.704 4.096-2.048 9.216-3.072 14.336-3.072s9.728 1.024 14.336 3.072c4.608 2.048 8.704 5.12 12.288 8.704 10.24 10.752 26.624 11.264 37.376 1.024s11.264-26.624 1.024-37.376c-8.192-8.704-18.432-15.872-29.696-20.992-10.752-4.608-23.040-7.68-35.328-7.68s-24.064 2.56-35.328 7.68c-11.264 4.608-20.992 11.776-29.696 20.992v0c-3.584 3.584-7.68 6.656-12.288 8.704-4.096 2.048-9.216 3.072-14.336 3.072s-9.728-1.024-14.336-3.072c-4.608-2.048-8.704-5.12-12.288-8.704v0c-8.192-8.704-18.432-15.872-29.696-20.992-10.752-4.608-23.040-7.68-35.328-7.68s-24.064 2.56-35.328 7.68c-11.264 5.12-20.992 12.288-29.696 20.992v0c-3.584 3.584-7.68 6.656-12.288 8.704-4.096 2.048-9.216 3.072-14.336 3.072s-9.728-1.024-14.336-3.072c-4.608-2.048-8.704-5.12-12.288-8.704v0c-8.192-8.704-18.432-15.872-29.696-20.992-10.752-4.608-23.040-7.68-35.328-7.68s-24.064 2.56-35.328 7.68c-11.264 4.608-20.992 11.776-29.696 20.992v0c-3.584 3.584-7.68 6.656-12.288 8.704-4.096 2.048-9.216 3.072-14.336 3.072s-9.728-1.024-14.336-3.072c-4.608-2.048-8.704-5.12-12.288-8.704v0c-8.192-8.704-18.432-15.872-29.696-20.992-10.752-4.608-23.040-7.68-35.328-7.68s-24.064 2.56-35.328 7.68c-11.264 4.608-20.992 12.288-29.696 20.992-10.24 10.752-9.728 27.136 1.024 37.376s27.136 9.728 37.376-1.024c3.584-3.584 7.68-6.656 12.288-8.704 4.096-2.048 8.704-3.072 14.336-3.072 5.12 0 9.728 1.024 14.336 3.072s8.704 5.12 12.288 8.704v0c4.608 4.608 9.216 8.704 14.848 12.8l-84.992 335.872c-1.024 3.584-0.512 7.168 1.536 10.24s4.608 5.12 8.192 6.144l306.176 76.288c2.048 0.512 4.096 0.512 6.656 0l306.176-76.288c3.584-1.024 6.144-3.072 8.192-6.144s2.56-6.656 1.536-10.24l-86.528-335.872zM485.376 847.36c-10.752 0-19.968-9.216-19.968-19.968v-73.216h-166.4c-14.848 0-26.624-11.776-26.624-26.624s11.776-26.624 26.624-26.624h26.624v-53.248h-33.28c-10.752 0-19.968-8.704-19.968-19.968v-91.136l226.816 56.32c8.704 2.048 17.408 2.048 25.6 0l226.816-56.32v91.136c0 10.752-9.216 19.968-19.968 19.968h-33.28v53.248h26.624c14.848 0 26.624 11.776 26.624 26.624s-11.776 26.624-26.624 26.624h-166.4v73.216c0 10.752-9.216 19.968-19.968 19.968h-53.248z" />
<glyph unicode="&#xe904;" glyph-name="calendar" d="M844.8 772.608h-108.032v50.176c0 13.824-11.264 25.088-25.088 25.088s-25.088-11.264-25.088-25.088v-50.176h-150.016v50.176c0 13.824-11.264 25.088-25.088 25.088s-25.088-11.264-25.088-25.088v-50.176h-148.992v50.176c0 13.824-11.264 25.088-25.088 25.088s-25.088-11.264-25.088-25.088v-50.176h-108.032c-36.864 0-66.56-29.696-66.56-66.56v-590.848c0-36.864 29.696-66.56 66.56-66.56h665.6c36.864 0 66.56 29.696 66.56 66.56v590.848c0 36.864-29.696 66.56-66.56 66.56zM861.184 115.2c0-9.216-7.68-16.384-16.384-16.384h-665.6c-9.216 0-16.896 7.68-16.896 16.384v590.848c0 9.216 7.68 16.384 16.896 16.384h108.032v-50.176c0-13.824 11.264-25.088 25.088-25.088s25.088 11.264 25.088 25.088v50.176h149.504v-50.176c0-13.824 11.264-25.088 25.088-25.088s25.088 11.264 25.088 25.088v50.176h150.016v-50.176c0-13.824 11.264-25.088 25.088-25.088s25.088 11.264 25.088 25.088v50.176h107.52c9.216 0 16.384-7.68 16.384-16.384v-590.848zM287.232 547.84h99.84v-74.752h-99.84v74.752zM287.232 422.912h99.84v-74.752h-99.84v74.752zM287.232 297.984h99.84v-74.752h-99.84v74.752zM461.824 297.984h99.84v-74.752h-99.84v74.752zM461.824 422.912h99.84v-74.752h-99.84v74.752zM461.824 547.84h99.84v-74.752h-99.84v74.752zM636.928 297.984h99.84v-74.752h-99.84v74.752zM636.928 422.912h99.84v-74.752h-99.84v74.752zM636.928 547.84h99.84v-74.752h-99.84v74.752z" />
<glyph unicode="&#xe905;" glyph-name="car" d="M972.288 626.688c-20.992 1.024-42.496 1.024-63.488 0-14.848-1.024-22.528 4.096-27.648 18.944-11.776 35.328-24.576 70.144-37.888 104.96-24.064 62.464-74.752 96.768-142.336 96.768-123.904 0-248.32 0-372.224 0-70.144 0-120.832-34.816-145.408-100.352-12.8-33.792-25.6-68.096-36.864-102.4-4.608-13.312-11.264-18.944-25.6-17.92-22.016 1.024-44.032 0.512-66.048 0-29.184-0.512-27.136-21.504-27.136-41.472 0-19.456 4.608-33.28 28.16-32.256 14.848 0.512 30.208 0 52.736 0-39.936-50.176-39.424-103.424-38.912-156.672 0.512-93.696 0-187.392 0-281.088 0-68.096 1.536-69.632 69.12-68.608 26.624 0.512 35.84 9.216 36.352 36.864 0.512 21.504 0 43.52 0 66.048 227.328 0 451.072 0 677.888 0 0-23.040-0.512-43.52 0-64.512 0.512-29.184 9.728-37.888 37.888-38.4 2.56 0 5.12 0 7.68 0 56.832 0 60.416 3.072 60.416 59.392 0 89.6 0 179.2 0 268.288 0 60.416 6.144 121.856-37.888 178.176 20.48 0 35.328 0.512 50.176 0 22.528-1.024 29.696 10.24 29.696 30.72 0 34.816-4.096 42.496-28.672 43.52zM210.432 645.12l33.792 92.16c10.752 29.184 52.224 51.2 92.672 51.2h347.648c40.448 0 81.92-22.016 92.672-51.2l33.792-92.16c14.848-40.448-15.872-76.288-70.144-76.288h-460.8c-53.76 0-84.48 35.84-69.632 76.288zM260.096 326.656l-81.92-0.512c-33.28 0-60.928 27.136-60.928 60.416v0c0 33.28 27.136 60.928 60.416 60.928h12.288l124.928-86.016c-9.728-20.48-30.72-34.816-54.784-34.816zM641.536 224.768c-85.504-0.512-170.496 0-256-0.512-26.112 0-30.208 14.336-30.208 35.84s1.536 39.424 29.696 38.912c43.008-0.512 86.016 0 129.024 0 41.984 0 84.48 0.512 126.464 0 26.624-0.512 30.72-6.144 31.232-37.376s-4.096-36.864-30.208-36.864zM911.36 386.56c0-33.28-27.648-60.928-60.928-60.416l-81.92 0.512c-24.576 0-45.568 14.848-55.296 35.84l124.928 86.016h12.288c33.792-1.024 60.928-28.16 60.928-61.952v0z" />
<glyph unicode="&#xe906;" glyph-name="caret-down" d="M741.888 543.232c8.192 9.216 10.24 22.528 5.12 34.304-5.12 11.264-16.384 18.944-29.184 18.944h-414.72c-12.288 0-24.064-7.168-29.184-18.944-5.12-11.264-3.072-25.088 5.12-34.304l207.36-232.96c6.144-6.656 14.848-10.752 23.552-10.752 9.216 0 17.92 4.096 23.552 10.752l208.384 232.96z" />
<glyph unicode="&#xe907;" glyph-name="caret-up" d="M279.552 353.28c-8.192-9.216-10.24-22.528-5.12-34.304 5.12-11.264 16.384-18.944 29.184-18.944h415.232c12.288 0 24.064 7.168 29.184 18.944 5.12 11.264 3.072 25.088-5.12 34.304l-207.36 232.96c-6.144 6.656-14.848 10.752-23.552 10.752-9.216 0-17.92-4.096-23.552-10.752l-208.896-232.96z" />
<glyph unicode="&#xe908;" glyph-name="check" d="M846.848 741.888c-12.288 12.288-29.184 19.456-46.592 19.456s-34.304-6.656-46.592-19.456l-337.408-337.408-145.92 146.432c-12.288 12.288-28.672 19.456-46.592 19.456-17.408 0-34.304-6.656-46.592-19.456l-55.296-55.808c-25.6-25.6-25.6-67.584 0-93.184l248.32-248.32c12.288-12.288 28.672-19.456 46.592-19.456s34.304 6.656 46.592 19.456l439.296 439.296c12.288 12.288 19.456 28.672 19.456 46.592 0 17.408-6.656 34.304-19.456 46.592l-55.808 55.808z" />
<glyph unicode="&#xe909;" glyph-name="circle-plus" d="M720.384 500.224h-156.16v156.16c0 28.672-23.552 52.224-52.224 52.224v0c-28.672 0-52.224-23.552-52.224-52.224v-156.16h-156.16c-28.672 0-52.224-23.552-52.224-52.224v0c0-28.672 23.552-52.224 52.224-52.224h156.16v-156.16c0-28.672 23.552-52.224 52.224-52.224v0c28.672 0 52.224 23.552 52.224 52.224v156.16h156.16c28.672 0 52.224 23.552 52.224 52.224v0c0 28.672-23.552 52.224-52.224 52.224zM908.288 615.424c-21.504 51.2-52.736 97.28-92.16 136.704s-85.504 70.656-136.704 92.16c-53.248 22.528-109.568 33.792-167.424 33.792s-114.176-11.264-167.424-33.792c-51.2-21.504-97.28-52.736-136.704-92.16s-70.656-85.504-92.16-136.704c-22.528-53.248-33.792-109.568-33.792-167.424s11.264-114.176 33.792-167.424c21.504-51.2 52.736-97.28 92.16-136.704s85.504-70.656 136.704-92.16c53.248-22.528 109.568-33.792 167.424-33.792s114.176 11.264 167.424 33.792c51.2 21.504 97.28 52.736 136.704 92.16s70.656 85.504 92.16 136.704c22.528 53.248 33.792 109.568 33.792 167.424s-11.264 114.176-33.792 167.424zM512 69.632c-208.896 0-378.368 169.984-378.368 378.368s169.472 378.368 378.368 378.368 378.368-169.984 378.368-378.368-169.472-378.368-378.368-378.368z" />
<glyph unicode="&#xe90a;" glyph-name="creditcard" d="M52.224 241.152c0-50.688 41.472-92.16 92.16-92.16h735.744c50.688 0 92.16 41.472 92.16 92.16v235.52h-920.064v-235.52zM185.856 336.384h325.632v-55.296h-325.632v55.296zM879.616 747.008h-735.232c-50.688 0-92.16-41.472-92.16-92.16v-49.152h919.552v49.152c0 50.688-41.472 92.16-92.16 92.16z" />
<glyph unicode="&#xe90b;" glyph-name="divider" d="M496.485 960h31.030v-1024h-31.030v1024z" />
<glyph unicode="&#xe90c;" glyph-name="edit" d="M761.344 622.080v122.368c0 32.768-26.624 59.392-59.392 59.392h-592.384c-32.768 0-59.392-26.624-59.392-59.392v-592.384c0-32.768 26.624-59.392 59.392-59.392h592.384c32.768 0 59.392 26.624 59.392 59.392v135.168l-114.688-114.688c-2.56-2.56-6.144-4.096-9.728-4.608l-150.528-9.728c-12.288-1.024-22.528 9.216-21.504 21.504l2.56 43.008h-270.848c-15.36 0-28.16 12.288-28.16 28.16 0 15.36 12.288 28.16 28.16 28.16h274.432l3.072 51.2c0 3.584 1.536 7.168 4.608 9.728l13.312 13.312h-295.424c-15.36 0-28.16 12.288-28.16 28.16s12.288 28.16 28.16 28.16h351.744l75.776 75.776c-2.56-1.024-5.632-1.536-8.704-1.536h-418.816c-15.36 0-28.16 12.288-28.16 28.16 0 15.36 12.288 28.16 28.16 28.16h418.816c15.36 0 28.16-12.288 28.16-28.16 0-3.072-0.512-6.144-1.536-8.704l119.296 118.784zM614.912 613.376h-418.304c-15.36 0-28.16 12.288-28.16 28.16 0 15.36 12.288 28.16 28.16 28.16h418.816c15.36 0 28.16-12.288 28.16-28.16-0.512-15.872-12.8-28.16-28.672-28.16zM531.189 344.432l256.321 256.321 120.196-120.196-256.321-256.321-120.196 120.196zM507.392 321.024l-8.192-128.512 128.512 8.192zM835.072 648.192l-23.552-23.552 120.32-119.808 23.552 23.552c24.576 24.576 24.576 64.512 0 89.6l-30.72 30.72c-25.088 24.064-65.024 24.064-89.6-0.512z" />
<glyph unicode="&#xe90d;" glyph-name="envelope" d="M886.272 712.704c-8.704 4.096-18.432 6.656-28.16 6.656h-692.224c-9.728 0-19.456-2.048-28.16-6.656-22.016-10.752-35.328-32.768-35.328-56.832v-415.232c0-34.816 28.672-63.488 63.488-63.488h692.224c34.816 0 63.488 28.672 63.488 63.488v415.232c0 24.064-13.312 46.080-35.328 56.832zM148.992 629.248l209.92-182.272-209.92-180.224v362.496zM169.984 672.256h683.52l-328.192-285.184c-3.584-3.072-8.192-4.608-13.312-4.608s-10.24 1.536-13.312 4.608l-328.704 285.184zM394.752 415.744l73.728-64c11.776-10.24 27.648-15.872 44.032-15.872s31.744 5.632 44.032 15.872l73.728 64 224.256-192.512h-684.032l224.256 192.512zM665.088 446.976l209.92 182.272v-362.496l-209.92 180.224z" />
<glyph unicode="&#xe90e;" glyph-name="luggage" d="M150.016 62.464c0-7.68 6.656-14.336 14.336-14.336h70.144c7.68 0 14.336 6.656 14.336 14.336v13.824h-98.816v-13.824zM775.168 75.776v-13.824c0-7.68 6.656-14.336 14.336-14.336h70.144c7.68 0 14.336 6.656 14.336 14.336v13.824h-98.816zM642.048 848.384h-262.656c-7.68 0-14.336-6.656-14.336-14.336v-64.512c0-7.68 3.072-14.336 7.168-14.336s7.168-6.656 7.168-14.336v-23.040c0-2.56 0.512-4.608 1.536-6.656h25.6c1.024 2.048 1.536 4.096 1.536 6.656v23.040c0 7.68 3.072 14.336 7.168 14.336s7.168 6.656 7.168 14.336v9.216c0 7.68 6.656 14.336 14.336 14.336h146.944c7.68 0 14.336-6.656 14.336-14.336v-9.216c0-7.68 3.072-14.336 7.168-14.336s7.168-6.656 7.168-14.336v-23.040c0-2.56 0.512-4.608 1.536-6.656h26.112c1.024 2.048 1.536 4.096 1.536 6.656v23.040c0 7.68 3.072 14.336 7.168 14.336s7.168 6.656 7.168 14.336v64c0.512 8.192-6.144 14.848-13.824 14.848zM51.712 612.864v-439.296c0-39.424 32.256-71.68 71.68-71.68h158.208v582.656h-157.696c-39.936 0-72.192-32.256-72.192-71.68zM318.464 101.888h387.072v582.656h-387.072v-582.656zM900.096 684.544h-158.208v-582.656h158.208c39.424 0 71.68 32.256 71.68 71.68v439.296c0.512 39.424-31.744 71.68-71.68 71.68z" />
<glyph unicode="&#xe90f;" glyph-name="passenger" d="M618.496 740.864c0-58.88-47.616-106.496-106.496-106.496s-106.496 47.616-106.496 106.496c0 58.88 47.616 106.496 106.496 106.496s106.496-47.616 106.496-106.496zM512 616.448c-97.792 0-177.664-79.36-177.664-177.664v-71.168c0-39.424 31.744-71.168 71.168-71.168v-141.824c0-58.88 47.616-106.496 106.496-106.496s106.496 47.616 106.496 106.496v141.824c39.424 0 71.168 31.744 71.168 71.168v71.168c0 98.304-79.872 177.664-177.664 177.664z" />
<glyph unicode="&#xe910;" glyph-name="pointer-left" d="M622.080 719.36l92.16-92.16-162.304-162.304 162.304-162.304-92.16-92.16-254.464 254.464z" />
<glyph unicode="&#xe911;" glyph-name="pointer-right" d="M459.776 210.432l-92.16 92.16 162.304 162.304-162.304 162.304 92.16 92.16 254.464-254.464z" />
<glyph unicode="&#xe912;" glyph-name="sj-logo" d="M178.176 294.912c0-4.096-0.512-8.192-2.048-11.776-1.024-3.584-2.56-7.168-4.608-9.728-5.12-7.68-13.312-13.824-24.064-17.408s-24.576-5.632-41.472-5.632c-3.072 0-7.168 0-11.264 0.512-4.608 0-9.216 0.512-13.824 1.536-5.12 1.024-9.728 2.56-14.336 4.096-4.608 2.048-8.704 4.608-12.8 7.68-2.56 2.56-5.12 4.608-6.656 7.68-1.536 2.56-3.072 5.12-3.584 7.168-1.024 2.56-1.536 4.608-2.048 6.656s-0.512 3.584-1.024 5.12l44.032 1.024c0.512-4.096 3.584-7.68 7.68-10.24s10.752-4.096 19.968-4.096c2.56 0 5.12 0 7.68 0.512 3.072 0.512 5.632 1.024 7.68 2.56 1.536 1.024 3.072 2.048 4.096 4.096 1.536 1.536 2.048 3.584 2.048 5.632 0 3.072-1.024 5.12-3.072 6.656s-3.584 2.56-5.632 3.072c-1.536 0.512-4.096 1.024-7.68 2.048-3.584 0.512-7.68 1.536-11.776 2.56s-8.192 1.536-12.288 2.048c-3.584 0.512-6.656 1.024-8.192 1.536-5.12 1.024-9.728 2.56-14.336 4.096-1.024 0.512-3.072 1.024-5.632 2.56-2.56 1.024-5.632 3.072-8.192 5.12-2.56 2.56-5.12 5.632-7.168 9.728s-3.072 8.704-3.072 14.336c0 4.608 1.024 9.216 2.56 13.312 2.048 4.096 4.096 7.68 7.168 11.264 3.584 3.584 7.68 6.656 12.288 8.704s9.216 3.584 14.336 4.608c5.12 1.024 9.728 2.048 14.336 2.048 4.608 0.512 8.704 0.512 12.288 0.512 7.68 0 14.848-0.512 22.016-1.536 6.656-1.024 12.288-2.048 16.384-3.584 6.144-2.048 10.752-4.096 13.824-7.168 3.584-3.072 6.144-5.632 8.192-8.704s3.072-6.144 4.096-8.704c0.512-3.072 1.024-5.12 1.536-6.656l-44.032-2.56c-0.512 1.024-0.512 2.048-1.536 3.584-0.512 1.024-1.536 2.56-3.072 3.584s-3.584 2.048-6.144 3.072c-2.56 1.024-6.656 1.024-11.264 1.024-1.536 0-3.072 0-5.632-0.512-2.56 0-4.608-0.512-6.656-1.536-2.048-0.512-4.096-1.536-5.12-3.072-1.536-1.536-2.048-3.072-2.048-5.632 0-1.536 0.512-3.072 1.536-4.608 1.024-1.024 2.048-1.536 3.584-2.56 2.048-1.024 3.584-1.536 6.144-2.56 2.048-0.512 4.096-1.536 6.656-2.048 2.048-0.512 4.096-1.024 6.144-1.536 4.096-1.024 8.704-2.048 12.8-2.56 4.096-1.024 8.704-2.048 12.8-2.56 2.56-0.512 5.12-1.024 8.192-2.048 2.56-0.512 5.12-1.536 8.192-2.56 4.096-1.536 7.68-3.584 10.752-5.632 2.56-2.56 5.12-4.608 6.656-7.168s3.072-5.12 3.584-8.192c0.512-1.536 1.024-4.608 1.024-7.168zM182.784 254.464v124.928h132.096v-28.16h-87.040v-20.48h80.384v-28.16h-80.384v-19.968h88.576v-28.16zM399.36 344.576l-14.336-42.496h29.184l-14.848 42.496zM430.592 254.464l-6.656 20.48h-48.128l-6.656-20.48h-49.152l53.76 124.928h51.2l54.272-124.928h-48.64zM551.936 287.232c0-2.56-0.512-5.12-1.024-7.168-0.512-2.56-1.536-5.12-2.56-7.168-1.536-2.56-3.072-5.12-5.12-7.168-2.56-2.56-5.12-4.608-7.68-5.632-3.072-1.536-5.632-2.56-8.704-3.072s-6.144-1.024-9.216-1.536c-3.072 0-6.144 0-9.728 0h-25.6v28.672h10.24c2.56 0 4.608 0 6.656 0s3.584 0.512 5.12 1.536c1.536 1.024 2.56 2.048 3.072 4.096 0.512 1.536 1.024 4.096 1.024 7.168v82.432h45.056v-85.504c-1.536-2.048-1.536-4.096-1.536-6.656zM566.784 254.464v124.928h132.096v-28.16h-87.040v-20.48h80.384v-28.16h-80.384v-19.968h88.576v-28.16zM798.72 351.232v-96.768h-45.568v96.768h-44.032v28.672h133.632v-28.672zM983.040 294.912c0-4.096-0.512-8.192-2.048-11.776s-3.072-7.168-4.608-9.728c-5.12-7.68-13.312-13.824-24.064-17.408s-24.576-5.632-41.472-5.632c-3.072 0-7.168 0-11.264 0.512-4.608 0-9.216 0.512-13.824 1.536-5.12 1.024-9.728 2.56-14.336 4.096-4.608 2.048-9.216 4.608-12.8 7.68-2.56 2.56-5.12 4.608-6.656 7.68-1.536 2.56-3.072 5.12-3.584 7.168-1.024 2.56-1.536 4.608-2.048 6.656s-0.512 3.584-1.024 5.12l44.032 1.024c0.512-4.096 3.584-7.68 7.68-10.24 4.608-2.56 10.752-4.096 19.968-4.096 2.56 0 5.12 0 7.68 0.512 3.072 0.512 5.632 1.024 7.68 2.56 1.536 1.024 3.072 2.048 4.096 4.096 1.024 1.536 2.048 3.584 2.048 5.632 0 3.072-1.024 5.12-3.072 6.656s-3.584 2.56-5.632 3.072c-1.536 0.512-4.096 1.024-7.68 2.048-3.584 0.512-7.68 1.536-11.776 2.56s-8.192 1.536-12.288 2.048c-3.584 0.512-6.656 1.024-8.192 1.536-5.12 1.024-9.728 2.56-14.336 4.096-1.024 0.512-3.072 1.024-5.632 2.56-2.56 1.024-5.632 3.072-8.192 5.12-3.072 2.56-5.632 5.632-7.68 9.728s-3.072 8.704-3.072 14.336c0 4.608 1.024 9.216 2.56 13.312 2.048 4.096 4.096 7.68 7.168 11.264 3.584 3.584 7.68 6.656 12.288 8.704s9.216 3.584 14.336 4.608c4.608 1.024 9.728 2.048 14.336 2.048 4.608 0.512 8.704 0.512 12.288 0.512 7.68 0 14.848-0.512 22.016-1.536s12.288-2.048 16.384-3.584c6.144-2.048 10.752-4.096 13.824-7.168 3.584-3.072 6.144-5.632 8.192-8.704s3.072-6.144 4.096-8.704c0.512-3.072 1.024-5.12 1.536-6.656l-43.008-2.56c-0.512 1.024-0.512 2.048-1.024 3.584-0.512 1.024-1.536 2.56-3.072 3.584s-3.584 2.048-6.656 3.072c-2.56 1.024-6.656 1.024-11.264 1.024-1.536 0-3.072 0-5.632-0.512-2.048 0-4.608-0.512-6.656-1.536-2.048-0.512-4.096-1.536-5.632-3.072s-2.048-3.072-2.048-5.632c0-1.536 0.512-3.072 1.536-4.608 0.512-1.024 2.048-1.536 3.584-2.56 2.048-1.024 4.096-1.536 6.144-2.56 2.048-0.512 4.608-1.536 6.656-2.048s4.096-1.024 6.144-1.536 8.704-2.048 12.8-2.56c4.096-1.024 8.704-2.048 12.8-2.56 2.56-0.512 5.12-1.024 8.192-2.048 2.56-0.512 5.12-1.536 8.192-2.56 4.096-1.536 7.68-3.584 10.24-5.632 2.56-2.56 5.12-4.608 6.656-7.168s3.072-5.12 3.584-8.192c1.024-1.536 1.536-4.608 1.536-7.168zM980.992 645.12c-2.56 0-6.144-1.024-9.728-2.048l1.024 0.512c0 0-120.32-24.064-93.696-24.064 14.336 0 23.040-1.536 28.672-2.56-115.2-54.272-318.464-169.984-361.984-186.88 0 0 0 0-0.512 0-2.048 0-4.096-0.512-6.144-0.512-8.192 0-13.312 2.56-16.384 6.144-2.048 2.56-3.584 5.12-4.608 8.704-1.024 2.56-1.536 5.12-2.048 8.192-2.56 11.776-6.656 26.624-28.16 26.112v0h-1.024c-1.024 0-2.048 0-3.072 0-0.512 0-1.024 0-1.536 0s-1.536 0-2.048-0.512c-0.512 0-1.024 0-1.536-0.512-1.024 0-1.536-0.512-2.048-0.512s-1.024 0-1.536-0.512c-0.512 0-1.536-0.512-2.048-0.512s-1.024-0.512-1.536-0.512c-0.512 0-1.536-0.512-2.048-0.512s-1.024-0.512-1.536-0.512c-0.512-0.512-1.536-0.512-2.048-1.024-0.512 0-1.024-0.512-1.024-0.512-1.024-0.512-2.048-1.024-3.072-1.536 0 0 0 0-0.512 0-1.024-0.512-2.56-1.024-3.584-1.536v0c-1.024-0.512-2.048-1.024-3.072-1.536 0 0-0.512-0.512-0.512-0.512-1.024-0.512-2.048-1.024-2.56-1.536 0 0-0.512-0.512-0.512-0.512-1.024-0.512-2.048-1.024-2.56-1.536 0 0-0.512 0-0.512-0.512-1.024-0.512-2.048-1.024-2.56-2.048 0 0 0 0-0.512-0.512-1.024-0.512-2.048-1.024-3.072-2.048 0 0 0 0 0 0-1.024-0.512-2.048-1.536-3.072-2.048l-0.512-0.512c0 0 0 0-0.512 0-2.048-1.536-4.096-3.072-6.144-4.096-2.048-1.536-4.096-3.072-6.144-4.608-4.096-3.072-8.192-5.632-12.288-8.192-0.512 0-0.512-0.512-1.024-0.512-2.048-1.024-3.584-2.048-5.12-3.072-0.512 0-0.512-0.512-1.024-0.512-2.048-1.024-4.096-2.048-5.632-2.56-0.512 0-0.512-0.512-1.024-0.512-2.048-1.024-4.096-1.536-6.144-2.048 0 0 0 0 0 0-2.048-0.512-4.096-1.024-6.144-1.536-0.512 0-0.512 0-1.024 0-2.048 0-4.096-0.512-6.144-0.512h-0.512c-1.536 0-2.56 0-3.584 0.512-0.512 0-1.024 0-1.536 0-1.024 0-2.048 0.512-2.56 0.512s-1.024 0.512-1.536 0.512c0 0-0.512 0-0.512 0-2.56 1.024-4.608 2.56-6.144 4.096-2.048 2.56-3.584 5.12-4.608 8.704-1.024 2.56-1.536 5.12-2.048 8.192-2.048 9.216-5.12 20.48-16.384 24.576 0 0 0 0-0.512 0s-1.024 0.512-2.048 0.512c0 0-0.512 0-1.024 0s-1.024 0.512-2.048 0.512c-0.512 0-1.024 0-1.536 0s-1.024 0-1.536 0.512c-1.024 0-2.048 0-3.072 0h-0.512c-13.312-0.512-24.576-5.12-35.84-12.288-2.048-1.024-4.096-2.56-5.632-3.584v0c0 0 0 0 0 0-1.536-1.024-3.072-2.048-4.608-3.072 0 0-0.512 0-0.512-0.512v0c-0.512-0.512-1.024-0.512-1.536-1.024-2.048-1.536-4.096-3.072-6.144-4.096-2.048-1.536-4.096-3.072-6.144-4.608-0.512-0.512-0.512-0.512-1.024-0.512-0.512-0.512-1.536-1.024-2.048-1.536s-0.512-0.512-1.024-1.024-1.024-1.024-2.048-1.024c-0.512-0.512-1.024-0.512-1.536-1.024s-1.024-0.512-1.536-1.024c-0.512-0.512-1.024-0.512-1.536-1.024s-1.024-0.512-1.536-1.024c-0.512-0.512-1.024-0.512-1.536-1.024s-1.024-0.512-1.536-1.024c-0.512-0.512-1.024-0.512-1.536-1.024s-1.024-0.512-1.536-0.512c-0.512-0.512-1.024-0.512-1.536-1.024-0.512 0-0.512-0.512-1.024-0.512-1.024-0.512-2.56-1.024-3.584-1.536-0.512 0-0.512-0.512-1.024-0.512s-1.024-0.512-1.536-0.512c-0.512 0-1.024-0.512-1.536-0.512-0.512-0.512-1.024-0.512-1.536-0.512s-1.024-0.512-1.536-0.512c-0.512 0-1.024-0.512-1.536-0.512l-1.536-0.512c-0.512 0-1.024-0.512-1.536-0.512s-1.024 0-1.536-0.512c-0.512 0-1.024 0-1.536-0.512-0.512 0-1.024 0-2.048 0-0.512 0-1.024 0-1.536 0-1.024 0-2.048 0-3.072 0v0c-1.536 0-2.56 0-4.096 0.512-0.512 0-1.024 0-1.024 0-1.024 0-2.048 0.512-3.584 0.512-0.512 0-0.512 0.512-1.024 0.512-0.512 0.512-1.536 0.512-2.048 1.024-0.512 0-0.512 0.512-1.024 0.512-0.512 0.512-1.536 1.024-2.048 1.024-0.512 0.512-0.512 0.512-1.024 1.024s-0.512 0.512-1.024 1.024c0 0-0.512 0.512-0.512 1.024-0.512 0.512-1.024 1.024-1.024 1.536-0.512 0.512-0.512 1.024-0.512 1.024 0 0.512-0.512 0.512-0.512 1.024-0.512 1.024-1.024 2.048-1.024 3.072 0 0 0 0 0 0.512-1.024 2.56-1.536 5.632-2.56 8.704-2.048 9.216-5.12 20.48-16.384 24.576 0 0 0 0-0.512 0s-1.536 0.512-2.048 0.512c0 0-0.512 0-0.512 0-0.512 0-1.536 0.512-2.048 0.512s-1.024 0-1.024 0-1.024 0-2.048 0.512c-1.024 0-2.048 0-3.072 0h-1.536c0 0-0.512 0-0.512 0h-1.024l-5.12-0.512c-0.512 0-1.536-0.512-2.048-0.512-1.536-0.512-3.072-0.512-4.608-1.024-1.024-0.512-1.536-0.512-2.56-1.024-1.536-0.512-2.56-1.024-4.096-1.536-1.024-0.512-2.048-0.512-2.56-1.024-1.536-0.512-2.56-1.024-4.096-2.048-1.024-0.512-1.536-1.024-2.56-1.024-1.536-0.512-2.56-1.536-4.096-2.56-0.512-0.512-1.536-0.512-2.048-1.024-2.048-1.024-4.096-2.56-6.144-3.584-0.512-0.512-1.024-0.512-1.536-1.024-1.024-1.024-2.56-1.536-3.584-2.56v0c-2.56-2.048-5.12-3.584-7.68-5.632-17.92-13.824-36.352-32.256-70.656-48.64 30.208 4.096 72.192 33.792 78.336 37.888 0.512 0.512 1.024 0.512 2.048 1.024 1.536 1.024 2.56 1.536 4.096 2.56 0.512 0 1.024 0.512 1.536 1.024 1.536 1.024 3.584 2.048 5.12 2.56 0.512 0 1.024 0.512 1.536 0.512 2.048 0.512 3.584 1.536 5.12 2.048 0 0 0.512 0 0.512 0 2.048 0.512 4.096 1.024 6.144 1.536h1.024c2.048 0.512 4.096 0.512 6.144 0.512 8.704 0 13.312-2.56 16.384-6.144 2.048-2.56 3.584-5.12 4.608-8.704 1.024-2.56 1.536-5.12 2.56-8.192 2.56-11.776 6.656-26.624 28.16-26.112v0c0 0 0 0 0.512 0 1.024 0 2.048 0 3.072 0 0.512 0 1.024 0 1.536 0s1.536 0 2.048 0.512c0.512 0 1.024 0 1.536 0.512 0.512 0 1.536 0 2.048 0.512 0.512 0 1.024 0 1.536 0.512 0.512 0 1.024 0 2.048 0.512 0.512 0 1.024 0.512 1.536 0.512s1.536 0.512 2.048 0.512c0.512 0 1.024 0 1.536 0.512s1.536 0.512 2.048 1.024c0.512 0 0.512 0.512 1.024 0.512 1.024 0.512 2.048 0.512 3.072 1.024 0 0 0 0 0.512 0 1.024 0.512 2.048 1.024 3.584 2.048v0c1.024 0.512 2.048 1.024 3.072 1.536 0 0 0.512 0 0.512 0.512 1.024 0.512 2.048 1.024 2.56 1.536 0 0 0.512 0.512 0.512 0.512 1.024 0.512 2.048 1.024 2.56 2.048 0 0 0.512 0 0.512 0.512 1.024 0.512 2.048 1.024 3.072 2.048 0 0 0 0 0.512 0 1.024 0.512 2.048 1.536 3.072 2.048 0 0 0 0 0 0 1.024 1.024 2.048 1.536 3.072 2.048 0 0 0 0 0.512 0 0 0 0 0 0 0.512 2.048 1.536 4.096 2.56 6.144 4.096s4.096 3.072 6.144 4.608 8.192 5.632 12.288 8.192c0 0 0 0 0.512 0 1.536 1.024 3.584 2.048 5.12 3.072 0.512 0 0.512 0.512 1.024 0.512 2.048 1.024 4.096 2.048 5.632 2.56 0.512 0 0.512 0.512 1.024 0.512 2.048 0.512 4.096 1.536 6.144 2.048s4.096 1.024 6.144 1.536c0.512 0 1.024 0 1.024 0 2.048 0.512 4.096 0.512 6.144 0.512v0c1.536 0 2.56 0 3.584 0 0.512 0 1.024 0 1.536 0 1.024 0 2.048-0.512 2.56-0.512s1.536-0.512 2.048-0.512c0 0 0.512 0 0.512 0 2.56-1.024 4.608-2.56 6.144-4.096 2.048-2.56 3.584-5.12 4.608-8.704 1.024-2.56 1.536-5.12 2.048-8.192 2.048-9.728 5.12-20.48 16.384-24.576 0 0 0 0 0.512 0s1.536-0.512 2.048-0.512c0.512 0 0.512 0 1.024 0s1.536-0.512 2.048-0.512c0.512 0 1.024 0 1.536 0s1.024 0 1.536 0 2.048 0 3.072 0c0 0 0 0 0 0v0c0 0 0.512 0 0.512 0 13.312 0 24.576 5.12 35.84 12.288 2.048 1.024 4.096 2.56 6.144 3.584 0 0 0 0 0 0s0 0 0 0c1.536 1.024 3.072 2.048 4.608 3.072 0 0 0.512 0 0.512 0.512 0.512 0.512 1.024 0.512 1.536 1.024 2.048 1.536 4.096 2.56 6.144 4.096s4.096 3.072 6.144 4.608c0.512 0.512 0.512 0.512 1.024 0.512 0.512 0.512 1.536 1.024 2.048 1.536s0.512 0.512 1.024 1.024 1.024 1.024 1.536 1.024c0.512 0.512 1.024 0.512 1.536 1.024s1.024 0.512 1.536 1.024c0.512 0.512 1.024 0.512 1.536 1.024s1.024 0.512 1.536 1.024c0.512 0.512 1.024 0.512 1.536 1.024l1.536 1.024c0.512 0.512 1.024 0.512 1.536 1.024 0.512 0 1.024 0.512 1.536 0.512 0.512 0.512 1.024 0.512 1.536 1.024 0.512 0 0.512 0.512 1.024 0.512 1.536 0.512 2.56 1.024 4.096 1.536 0.512 0 0.512 0.512 1.024 0.512 0.512 0.512 1.024 0.512 1.536 0.512s1.024 0.512 1.536 0.512c0.512 0 1.024 0.512 1.536 0.512s1.024 0.512 1.536 0.512c0.512 0 1.024 0.512 1.536 0.512s1.024 0 1.536 0.512c0.512 0 1.024 0.512 1.536 0.512s1.024 0 1.536 0.512c0.512 0 1.024 0 1.536 0.512 0.512 0 1.024 0 2.048 0 0.512 0 1.024 0 1.536 0 1.024 0 2.048 0 3.072 0 0 0 0 0 0 0 1.536 0 3.072 0 4.096-0.512 0.512 0 1.024 0 1.024 0 1.024 0 2.048-0.512 3.072-0.512 0.512 0 0.512 0 1.024-0.512 1.024-0.512 1.536-0.512 2.048-1.024 0.512 0 0.512-0.512 1.024-0.512 0.512-0.512 1.536-1.024 2.048-1.536 0.512 0 0.512-0.512 1.024-0.512 0.512-0.512 0.512-0.512 1.024-1.024s0.512-0.512 0.512-1.024c0.512-0.512 1.024-1.024 1.024-2.048l0.512-1.024c0-0.512 0.512-0.512 0.512-1.024 0.512-1.024 1.024-2.048 1.024-3.072 0 0 0-0.512 0-0.512 1.024-2.56 1.536-5.632 2.56-8.704 2.048-9.728 5.12-20.48 16.384-24.576 0 0 0 0 0.512 0s1.536-0.512 2.048-0.512c0 0 0.512 0 0.512 0 0.512 0 1.536-0.512 2.048-0.512s1.024 0 1.024 0 1.024 0 2.048 0c1.024 0 2.048 0 3.072 0 0 0 0 0 0.512 0s1.024 0 1.536 0c11.776 0.512 22.016 4.608 31.744 10.24v0c12.8 5.12 378.88 212.992 423.936 228.864z" />
<glyph unicode="&#xe913;" glyph-name="x" d="M696.32 337.408l-110.592 110.592 110.592 110.592c20.48 20.48 20.48 53.76 0 73.728v0c-20.48 20.48-53.76 20.48-73.728 0l-110.592-110.592-110.592 110.592c-20.48 20.48-53.76 20.48-73.728 0v0c-20.48-20.48-20.48-53.76 0-73.728l110.592-110.592-110.592-110.592c-20.48-20.48-20.48-53.76 0-73.728v0c20.48-20.48 53.76-20.48 73.728 0l110.592 110.592 110.592-110.592c20.48-20.48 53.76-20.48 73.728 0v0c20.48 20.48 20.48 53.76 0 73.728z" />
<glyph unicode="&#xe914;" glyph-name="stop" d="M512 730.624c156.16 0 283.136-126.464 283.136-283.136s-126.464-283.136-283.136-283.136-282.624 127.488-282.624 283.648 126.464 282.624 282.624 282.624zM672.256 507.904h-320.512v-119.808h321.024v119.808z" />
<glyph unicode="&#xe915;" glyph-name="disabled" d="M824.832 62.976c212.992 172.544 246.272 485.376 73.216 698.88s-485.376 245.76-698.88 73.216-246.272-485.376-73.216-698.88 485.376-245.76 698.88-73.216zM780.8 117.248c-172.032-139.264-419.328-122.88-571.904 31.232l660.48 535.040c119.296-181.76 83.456-427.008-88.576-566.272zM243.2 781.312c172.032 139.264 419.328 122.88 571.904-31.232l-660.48-535.040c-119.296 181.248-83.456 427.008 88.576 566.272z" />
<glyph unicode="&#xe916;" glyph-name="star" d="M793.6 447.488c0-20.48-5.632-35.328-17.408-44.544s-26.112-13.824-44.032-13.824c-11.264 0-34.816 5.12-70.656 14.848-35.84 10.24-73.728 17.408-113.664 22.528 26.112-34.304 55.296-67.072 87.040-97.28s47.616-56.32 47.616-77.824c0-14.848-6.656-28.16-19.968-39.424s-27.136-16.896-41.472-16.896c-10.24 0-19.456 3.072-28.16 8.704s-16.384 13.824-22.528 24.064c-5.632 10.24-12.8 32.768-22.016 68.096s-21.504 71.68-37.376 109.056c-14.848-35.328-27.648-71.68-37.376-109.568-10.24-37.376-17.408-59.904-22.016-67.584-7.168-11.264-14.848-19.456-22.016-25.088-7.68-5.12-16.896-7.68-28.16-7.68-14.848 0-29.184 5.12-41.984 15.872s-19.456 24.064-19.456 39.936c0 21.504 15.872 47.104 47.616 77.824 31.744 30.208 60.928 62.976 87.040 97.28-38.4-4.608-75.776-11.776-112.64-22.016s-60.416-15.36-71.68-15.36c-17.92 0-32.256 4.608-44.032 13.824s-17.408 24.064-17.408 44.544c0 18.432 5.632 33.28 17.408 43.52s26.112 15.36 44.032 15.36c14.336 0 36.864-4.608 67.584-13.824 31.232-9.216 69.632-16.896 116.224-22.016-30.208 38.4-59.904 71.68-90.112 100.352s-45.056 53.76-45.056 74.752c0 14.848 6.656 28.16 19.968 39.424s27.136 16.896 41.472 16.896c10.24 0 19.968-2.56 28.16-8.192s15.872-13.312 22.016-24.064c5.632-10.24 12.8-32.768 22.528-68.608s22.016-72.192 36.864-109.056c14.848 37.376 27.136 73.728 37.376 109.568 9.728 35.84 16.896 58.368 22.016 68.096 5.632 9.728 12.8 17.408 21.504 23.040 8.704 6.144 18.432 8.704 29.184 8.704 14.848 0 29.184-5.12 41.984-15.872s19.456-24.064 19.456-39.936c0-20.992-14.336-45.568-42.496-73.216-28.16-28.16-58.88-61.952-91.648-101.888 45.568 6.144 84.48 13.312 116.736 22.528s54.784 13.824 66.56 13.824c17.92 0 32.256-5.12 44.032-15.36 12.8-10.752 18.944-25.088 18.944-43.52z" />
<glyph unicode="&#xe917;" glyph-name="info" d="M619.52 195.072h-206.848v24.064c5.632 0.512 11.264 1.024 16.896 1.536s10.24 1.536 13.824 3.072c7.168 2.56 11.776 6.144 14.848 11.264s4.096 11.264 4.096 19.456v189.952c0 7.68-1.536 14.336-5.12 19.968s-7.68 10.24-13.312 13.824c-4.096 2.56-9.728 5.12-17.92 7.68s-15.36 4.096-21.504 4.608v24.064l160.256 8.704 5.12-5.12v-259.584c0-7.68 1.536-14.336 5.12-19.456 3.072-5.12 8.192-9.216 13.824-11.776 4.608-2.048 9.216-3.584 14.336-5.12s10.752-2.56 16.384-3.072v-24.064zM571.392 640.512c0-16.384-6.144-30.72-18.944-42.496s-27.648-17.408-45.056-17.408c-17.408 0-32.768 5.632-45.568 17.408s-18.944 25.6-18.944 42.496c0 16.384 6.144 30.72 18.944 42.496s28.16 17.408 45.568 17.408c17.408 0 32.768-5.632 45.568-17.408 12.288-11.776 18.432-25.6 18.432-42.496z" />
<glyph unicode="&#xe918;" glyph-name="arrow-long" d="M938.496 449.024c0 0 0 0 0 0 0 0.512 0 0.512 0 1.024 0 0 0 0.512 0 0.512s0 0 0 0.512c0 0-0.512 0.512-0.512 0.512l-47.616 47.616c-1.536 1.536-4.608 1.536-6.144 0s-1.536-4.608 0-6.144l39.936-39.936h-834.56c-2.56 0-4.608-2.048-4.608-4.608s2.048-4.608 4.608-4.608h834.048l-39.936-39.936c-1.536-1.536-1.536-4.608 0-6.144 1.024-1.024 2.048-1.536 3.072-1.536s2.56 0.512 3.072 1.536l47.616 47.616c0 0 0.512 0.512 0.512 0.512s0 0 0 0.512c0 0 0 0.512 0 0.512s0 0.512 0 0.512c0 0 0 0 0 0.512 1.024-0.512 1.024 0.512 0.512 1.024z" />
<glyph unicode="&#xe919;" glyph-name="arrow-double" d="M54.784 232.96c0-0.512 0.512-1.024 0.512-2.048 0-0.512 0.512-1.536 0.512-2.048 0.512-0.512 0.512-1.536 1.024-2.048s0.512-1.024 1.024-1.536c1.024-1.024 1.536-2.56 2.56-3.584l216.064-215.552c8.192-8.192 20.992-8.192 28.672 0 8.192 8.192 8.192 20.992 0 28.672l-181.76 181.76h768.512c11.264 0 20.48 9.216 20.48 20.48s-9.216 20.48-20.48 20.48h-768.512l181.76 181.76c8.192 8.192 8.192 20.992 0 28.672-3.584 3.584-9.216 6.144-14.336 6.144s-10.752-2.048-14.336-6.144l-216.576-216.576c-1.024-1.024-2.048-2.048-2.56-3.584-0.512-0.512-0.512-1.024-1.024-1.536s-1.024-1.536-1.024-2.048c-0.512-0.512-0.512-1.536-0.512-2.048s-0.512-1.024-0.512-2.048-0.512-4.608 0.512-7.168zM969.216 663.040c0 0.512-0.512 1.024-0.512 2.048 0 0.512-0.512 1.536-0.512 2.048-0.512 0.512-0.512 1.536-1.024 2.048s-0.512 1.024-1.024 1.536c-1.024 1.024-1.536 2.56-2.56 3.584l-216.064 215.552c-8.192 8.192-20.992 8.192-28.672 0-8.192-8.192-8.192-20.992 0-28.672l181.76-181.76h-768.512c-11.264 0-20.48-9.216-20.48-20.48s9.216-20.48 20.48-20.48h768.512l-181.76-181.76c-8.192-8.192-8.192-20.992 0-28.672 3.584-3.584 9.216-6.144 14.336-6.144s10.752 2.048 14.336 6.144l216.576 216.576c1.024 1.024 2.048 2.048 2.56 3.584 0.512 0.512 0.512 1.024 1.024 1.536s1.024 1.536 1.024 2.048c0.512 0.512 0.512 1.536 0.512 2.048s0.512 1.024 0.512 2.048 0.512 4.608-0.512 7.168z" />
<glyph unicode="&#xe91a;" glyph-name="pointer-up" d="M795.648 384l-92.16-92.16-162.304 162.304-162.304-162.304-92.16 92.16 254.464 254.464z" />
<glyph unicode="&#xe91b;" glyph-name="pointer-down" d="M286.72 546.304l92.16 92.16 162.304-162.304 162.304 162.304 92.16-92.16-254.464-254.464z" />
<glyph unicode="&#xe91c;" glyph-name="filters" d="M54.857 768h905.143v-27.429h-905.143v27.429zM54.857 493.714h905.143v-27.429h-905.143v27.429zM54.857 182.857h905.143v-27.429h-905.143v27.429zM621.714 832c45.714 0 73.143-36.571 73.143-82.286s-36.571-73.143-73.143-73.143-82.286 27.429-82.286 73.143 36.571 82.286 82.286 82.286zM365.714 566.857c45.714 0 73.143-36.571 73.143-82.286s-36.571-73.143-73.143-73.143-82.286 27.429-82.286 73.143c0 45.714 36.571 82.286 82.286 82.286zM621.714 246.857c45.714 0 73.143-36.571 73.143-82.286s-27.429-73.143-73.143-73.143-73.143 36.571-73.143 73.143 36.571 82.286 73.143 82.286z" />
<glyph unicode="&#xe91d;" glyph-name="passenger2" horiz-adv-x="455" d="M363.85 823.364c0-75.226-60.898-136.636-136.636-136.636s-136.124 61.409-136.124 136.636 60.898 136.636 136.636 136.636 136.124-60.898 136.124-136.636zM227.726 664.212c-125.377 0-227.726-101.837-227.726-227.726v-91.090c0-50.663 40.428-91.090 91.090-91.090v-181.669c0-75.226 60.898-136.636 136.636-136.636s136.636 60.898 136.636 136.636v181.669c50.663 0 91.090 40.428 91.090 91.090v91.090c0 125.889-102.349 227.726-227.726 227.726z" />
<glyph unicode="&#xe91e;" glyph-name="calendar2" d="M937.984 863.744h-138.24v64c0 17.92-14.336 32.256-32.256 32.256s-32.256-14.336-32.256-32.256v-64h-192v64c0 17.92-14.336 32.256-32.256 32.256s-32.256-14.336-32.256-32.256v-64h-190.464v64c0 17.92-14.336 32.256-32.256 32.256s-32.256-14.336-32.256-32.256v-64h-138.24c-47.104 0-84.992-37.888-84.992-84.992v-756.736c0-47.104 37.888-84.992 84.992-84.992h852.48c47.104 0 84.992 37.888 84.992 84.992v756.224c0.512 47.104-37.376 85.504-84.992 85.504zM958.976 21.504c0-11.776-9.728-20.992-20.992-20.992h-851.968c-11.776 0-21.504 9.728-21.504 20.992v756.736c0 11.776 9.728 20.992 21.504 20.992h138.24v-64c0-17.92 14.336-32.256 32.256-32.256s32.256 14.336 32.256 32.256v64h191.488v-64c0-17.92 14.336-32.256 32.256-32.256s32.256 14.336 32.256 32.256v64h192v-64c0-17.92 14.336-32.256 32.256-32.256s32.256 14.336 32.256 32.256v64h137.728c11.776 0 20.992-9.728 20.992-20.992v-756.736zM224.256 576h128v-95.744h-128v95.744zM224.256 415.744h128v-95.744h-128v95.744zM224.256 256h128v-95.744h-128v95.744zM448 256h128v-95.744h-128v95.744zM448 415.744h128v-95.744h-128v95.744zM448 576h128v-95.744h-128v95.744zM671.744 256h128v-95.744h-128v95.744zM671.744 415.744h128v-95.744h-128v95.744zM671.744 576h128v-95.744h-128v95.744z" />
<glyph unicode="&#xe91f;" glyph-name="car2" horiz-adv-x="1245" d="M1207.952 677.94c-27.082 1.533-54.164 1.533-81.246 0-18.906-1.533-28.615 5.11-35.257 24.016-14.818 44.966-31.681 89.932-48.543 134.387-30.659 79.713-95.553 123.657-181.908 123.657-158.403 0-317.317 0-475.721 0-89.932 0-154.826-44.455-185.996-128.255-16.351-43.433-32.703-86.866-47.010-130.81-6.132-16.862-14.307-24.016-32.703-22.994-28.104 1.533-56.208 0.511-84.311 0-37.812-1.022-35.257-27.593-35.257-53.142 0-25.038 6.132-42.411 35.768-41.389 18.906 0.511 38.834 0 67.449 0-51.098-64.383-50.587-132.343-49.565-200.303 0.511-119.569 0-239.649 0-359.218 0-86.866 2.044-88.91 88.399-87.888 34.236 0.511 45.988 11.752 46.499 47.010 0.511 27.593 0 55.697 0 84.311 290.747 0 576.894 0 866.619 0 0-29.637-0.511-55.697 0-82.267 0.511-37.301 12.263-48.543 48.543-49.054 3.066 0 6.643 0 9.709 0 72.559 0 77.158 4.088 77.158 76.136 0 114.459 0 228.918 0 342.866 0 77.158 7.665 155.848-48.543 227.896 26.060 0 44.966 0.511 64.383 0 28.615-1.533 37.812 13.285 37.812 39.345 0.511 44.455-4.599 54.164-36.279 55.697zM233.517 701.445l43.433 118.036c13.796 37.301 66.938 65.405 118.547 65.405h444.551c51.609 0 104.75-28.104 118.547-65.405l43.433-118.036c18.906-51.609-20.439-97.597-89.932-97.597h-589.158c-68.982 0-108.327 45.988-89.421 97.597zM297.389 294.196l-104.75-0.511c-42.411 0-77.669 34.747-77.669 77.158v0c0 42.411 34.747 77.669 77.158 77.669h15.84l159.936-109.86c-12.774-26.060-39.856-44.455-70.515-44.455zM784.862 163.896c-109.349-0.511-218.188 0-327.537-0.511-33.214 0-38.834 18.395-38.834 45.988s2.044 50.587 37.812 49.565c55.186-0.511 109.86 0 165.046 0 53.653 0 107.816 0.511 161.469 0 34.236-0.511 39.345-7.665 39.856-48.032 1.533-39.856-4.088-47.010-37.812-47.010zM1130.283 370.842c0-42.411-35.257-77.669-77.669-77.158l-104.75 0.511c-31.681 0-58.251 18.906-70.515 45.988l159.936 109.86h15.84c42.411-1.533 77.158-36.279 77.158-79.202v0z" />
<glyph unicode="&#xe920;" glyph-name="hour" d="M266.667 588.188v-70.087h140.188v-70.101h-140.188v-210.29h210.29v70.101h-140.188v70.087h140.188v210.29zM722.29 448v140.188h-70.101v-140.188h-35.044v140.188h-70.101v-210.29h105.145v-140.188h70.101v140.188h70.087v70.101zM929.664 595.228l-64.213-28.075c21.276-48.683 32.071-100.551 32.071-154.212 0-212.565-172.956-385.522-385.522-385.522s-385.522 172.956-385.522 385.522c0 212.565 172.956 385.522 385.522 385.522v-70.101l175.232 105.145-175.232 105.159v-70.101c-251.221 0-455.623-204.402-455.623-455.623s204.402-455.609 455.623-455.609c251.25 0 455.623 204.402 455.623 455.623 0 63.431-12.757 124.772-37.959 182.272z" />
<glyph unicode="&#xe921;" glyph-name="bus" d="M678.997 898.617h-333.995c-105.472 0-192.199-83.214-198.059-186.34v-550.812c0-33.991 29.298-62.108 63.289-62.108v-45.71c0-31.644 24.604-56.249 57.429-56.249h31.644c31.644 0 56.249 24.604 56.249 56.249v45.71h312.917v-45.71c0-31.644 25.785-56.249 56.249-56.249h31.644c31.644 0 57.429 24.604 57.429 56.249l2.347 45.71c32.811 0 60.942 28.132 60.942 62.108v550.812c-7.054 103.125-92.601 186.34-198.087 186.34zM359.054 808.377c0 9.372 8.206 17.579 17.579 17.579h270.72c9.372 0 17.579-8.206 17.579-17.579v-35.157c0-9.372-8.206-17.579-17.579-17.579h-270.72c-9.372 0-17.579 8.206-17.579 17.579v35.157zM273.508 155.591c-25.785 0-45.71 19.925-45.71 45.71s19.925 46.876 45.71 46.876c25.785 0 45.71-21.092 45.71-46.876s-19.925-45.71-45.71-45.71zM750.492 155.591c-25.785 0-45.71 19.925-45.71 45.71s19.925 46.876 45.71 46.876c25.785 0 45.71-21.092 45.71-46.876s-19.925-45.71-45.71-45.71zM816.128 346.624c0-16.412-14.066-30.464-30.464-30.464h-547.314c-16.412 0-30.464 14.066-30.464 30.464v287.132c0 16.412 14.066 30.464 30.464 30.464h547.3c16.412 0 30.464-14.066 30.464-30.464v-287.132z" />
<glyph unicode="&#xe922;" glyph-name="clock" d="M552.889 464.185v242.773c0 22.542-18.347 40.889-40.889 40.889s-40.889-18.347-40.889-40.889v-258.958c0-10.78 4.295-21.006 11.463-28.132l193.138-220.871c7.993-7.993 18.503-12.004 29.013-12.004 10.496 0 21.020 3.996 29.013 12.004 7.723 7.723 11.975 18.034 11.975 29.013 0 10.994-4.252 21.291-11.349 28.345l-181.476 207.829zM512 938.667c-270.549 0-490.667-220.117-490.667-490.667s220.117-490.667 490.667-490.667 490.667 220.117 490.667 490.667-220.117 490.667-490.667 490.667zM512 39.111c-225.465 0-408.889 183.424-408.889 408.889s183.424 408.889 408.889 408.889 408.889-183.424 408.889-408.889-183.424-408.889-408.889-408.889z" />
<glyph unicode="&#xe923;" glyph-name="coctail" d="M955.406 686.137c24.533 28.629 4.082 73.6-32.711 73.6h-181.959l28.629 67.47 143.118 55.196c12.26 4.082 16.356 16.356 12.26 28.629-4.082 12.26-16.356 16.356-28.629 12.26l-153.33-59.292c-6.13-2.048-10.226-6.13-12.26-12.26l-38.841-92.004h-237.17c-6.13 102.215-92.004 186.041-198.315 186.041-108.359 0-198.315-89.956-198.315-198.315 0-110.407 89.956-198.315 198.315-198.315h4.096l245.333-282.14v-218.752h-98.133v-83.812h282.126v83.826h-98.133v218.752l363.918 419.115zM873.628 692.267l-92.004-106.311c-18.404-18.404-49.067-18.404-67.47 0-10.226 10.226-26.581 14.308-40.889 12.26l38.841 92.004h161.508v2.048zM100.821 747.463c0 85.86 69.504 155.378 155.378 155.378 81.778 0 147.2-63.374 153.33-143.118h-235.108c-38.841 0-57.244-44.971-32.711-73.6l75.648-87.908c-65.422 16.356-116.537 77.696-116.537 149.248zM448.384 588.004c-18.404 18.404-49.067 18.404-67.47 0s-49.067-18.404-67.47 0l-92.004 106.311h441.6l-49.067-118.585c-12.26 0-24.533 4.096-34.759 14.308-18.404 18.404-49.067 18.404-67.47 0-16.341-20.437-44.971-20.437-63.36-2.034z" />
<glyph unicode="&#xe924;" glyph-name="family" d="M270.848 53.419c-2.276 5.12-7.381 8.434-12.985 8.434h-86.329v501.092h90.638c6.13 0 11.563 3.925 13.497 9.742s-0.085 12.203-4.992 15.872l-59.292 44.331c-2.46 1.835-5.447 2.83-8.519 2.83h-37.86c-36.523 0-66.247-29.71-66.247-66.247v-514.162c0-36.523 29.724-66.247 66.247-66.247h112.626c4.821 0 9.301 2.432 11.932 6.485s3.015 9.131 1.052 13.54l-19.769 44.331zM858.98 635.719h-37.845c-3.072 0-6.059-0.996-8.519-2.83l-59.307-44.316c-4.907-3.669-6.912-10.069-4.992-15.886s7.381-9.742 13.497-9.742h90.638v-501.077h-86.329c-5.618 0-10.709-3.3-12.985-8.434l-19.769-44.345c-1.963-4.409-1.564-9.486 1.052-13.54s7.111-6.485 11.932-6.485h112.612c36.537 0 66.261 29.71 66.261 66.247v514.162c0.014 36.523-29.71 66.247-66.247 66.247zM468.153 758.997c0 0 0.071 1.166 0.071 1.166 0.071 1.095 0.142 2.19 0.142 3.314 0 79.104-64.341 143.445-143.445 143.445-79.118 0-143.474-64.356-143.474-143.445 0-51.897 28.274-99.911 73.785-125.312 21.276-11.861 45.369-18.148 69.66-18.148 0.014 0 0 0 0.014 0 77.909 0 140.828 61.056 143.246 138.98zM395.591 763.477c0-38.969-31.701-70.684-70.67-70.684s-70.684 31.701-70.684 70.684 31.701 70.67 70.684 70.67 70.67-31.701 70.67-70.67zM842.539 763.463c0.014 38.258-14.933 74.283-42.055 101.404s-63.118 42.069-101.39 42.069c-79.118 0-143.474-64.356-143.474-143.445 0-1.124 0.071-2.219 0.213-4.48 2.446-77.924 65.365-138.98 143.26-138.98 24.306 0 48.398 6.272 69.66 18.148 45.511 25.387 73.785 73.401 73.785 125.284zM769.764 763.477c0-38.969-31.701-70.684-70.67-70.684s-70.684 31.701-70.684 70.684 31.701 70.67 70.684 70.67 70.67-31.701 70.67-70.67zM609.522 288.91h-29.682c-7.865 0-14.222-6.372-14.222-14.222v-44.331c0-7.851 6.357-14.222 14.222-14.222h26.553v-154.297h-188.772v154.297h26.524c7.865 0 14.222 6.372 14.222 14.222v44.331c0 7.851-6.357 14.222-14.222 14.222h-29.668c-38.4 0-69.632-31.246-69.632-69.646v-160.555c0-38.4 31.232-69.646 69.632-69.646h195.044c38.4 0 69.632 31.246 69.632 69.646v160.555c0 38.414-31.232 69.646-69.632 69.646zM368.54 442.411c0-79.104 64.356-143.46 143.474-143.46 79.104 0 143.46 64.356 143.46 143.46s-64.356 143.445-143.46 143.445c-79.118 0-143.474-64.356-143.474-143.445zM441.33 442.411c0 38.969 31.701 70.67 70.684 70.67s70.684-31.701 70.684-70.67-31.701-70.684-70.684-70.684-70.684 31.716-70.684 70.684z" />
<glyph unicode="&#xe925;" glyph-name="great-view" d="M984.789 479.772c-52.267 65.579-240.811 279.751-472.405 279.751s-420.153-214.172-472.405-279.751c-15.374-18.446-15.374-45.084 0-64.555 52.267-64.555 240.811-278.727 472.405-278.727s420.153 214.172 472.405 279.751c14.35 17.408 14.35 46.108 0 63.531zM512.384 256.37c-105.543 0-191.63 86.073-191.63 191.63s86.073 191.63 191.63 191.63 191.63-86.087 191.63-191.63-86.087-191.63-191.63-191.63z" />
<glyph unicode="&#xe926;" glyph-name="no-charge" d="M561.963 321.721v96.939h-8.021l-96.939-96.939zM286.45 448c0-10.197 1.28-19.129 1.28-29.34h-59.947v-96.939h66.005l96.939 96.939h-4.779c-1.28 8.932-1.28 19.129-1.28 29.34 0 11.477 1.28 21.689 1.28 33.166h67.285l95.659 95.659h-136.164c29.34 53.575 79.076 76.53 127.545 79.090 24.747-0.882 48.839-6.77 71.097-16.597l72.092 72.092 0.953 1.906c-42.098 24.235-89.287 38.272-139.036 39.538h-8.917c-38.272-1.28-72.704-8.932-103.31-24.235-33.166-16.583-61.227-39.538-84.181-68.878-17.863-24.235-33.166-51.015-43.364-82.916h-79.090v-95.659h61.227c-1.294-11.492-1.294-21.689-1.294-33.166zM539.008 241.365c-39.367 1.038-80.427 16.384-110.18 52.181l-68.508-68.508c20.949-24.42 45.625-43.236 74.098-56.377 30.606-15.303 65.052-24.235 103.31-25.515 1.28 0 2.546 0 3.826 0h5.106c49.749 1.28 98.219 16.583 140.302 40.818l-44.644 88.007c-33.152-17.849-67.598-29.326-103.31-30.606zM179.868 207.801c-48.981 67.556-77.966 150.514-77.966 240.199 0 226.219 183.879 410.098 410.098 410.098 89.685 0 172.644-28.985 240.199-77.952l57.557 57.543c-82.631 63.275-185.842 100.978-297.756 100.978-270.635 0-490.667-220.032-490.667-490.667 0-111.915 37.703-215.125 100.978-297.756l57.557 57.557zM892.587 757.319l-57.33-57.33c54.343-69.575 86.841-157.013 86.841-251.975 0-226.219-183.865-410.098-410.098-410.098-94.976 0-182.4 32.498-251.975 86.841l-57.344-57.344c84.466-68.764 192.128-110.080 309.319-110.080 270.635 0 490.667 220.032 490.667 490.667 0 117.191-41.316 224.853-110.080 309.319z" />
<glyph unicode="&#xe927;" glyph-name="parking" d="M561.323 730.78h-211.669v-578.148h78.052v210.347h133.618c93.141 0 169.344 76.217 169.344 169.358v29.099c0.014 93.141-76.203 169.344-169.344 169.344zM655.246 538.439c0-53.959-44.146-98.105-98.119-98.105h-129.436v213.092h129.436c53.973 0 98.119-44.16 98.119-98.119v-16.868zM512 938.667c-270.564 0-490.667-220.117-490.667-490.667s220.103-490.667 490.667-490.667c270.549 0 490.667 220.117 490.667 490.667s-220.117 490.667-490.667 490.667zM512 20.324c-235.833 0-427.691 191.844-427.691 427.676s191.858 427.691 427.691 427.691 427.676-191.858 427.676-427.691-191.844-427.676-427.676-427.676z" />
<glyph unicode="&#xe928;" glyph-name="snorkel" d="M434.901 428.8c22.073 0 42.14-16.057 46.151-38.116 18.062-82.261 92.302-144.469 182.585-142.464 94.308 2.005 172.558 82.261 176.569 176.569 2.005 102.329-80.256 186.596-180.58 186.596h-441.415c-96.313 0-180.58-72.235-186.596-168.548-6.030-106.34 76.245-192.612 180.58-192.612 86.272 0 158.507 60.188 176.569 142.464 4.011 20.053 24.078 36.11 46.137 36.11zM328.562 402.716c-12.032-56.178-62.194-94.308-118.386-94.308-34.105 0-64.213 14.052-88.277 38.116-22.073 24.078-34.105 56.178-32.1 90.297 4.011 64.213 60.188 112.356 126.407 112.356h441.415c32.1 0 64.213-12.032 86.272-36.11 22.073-24.078 36.11-54.172 34.105-88.277-2.005-62.194-54.172-116.38-118.386-118.386h-4.011c-56.178 0-106.34 40.135-118.386 96.313-10.027 50.162-56.178 86.272-106.34 86.272-48.142 0-90.268-36.11-102.315-86.272zM992.697 934.428h-136.434v-190.606h38.13v-501.618c0-118.386-96.313-214.684-214.684-214.684-92.302 0-170.553 58.183-200.647 138.439 20.068 12.032 32.1 34.105 32.1 60.188 0 40.135-32.1 70.229-70.229 70.229-40.135 0-70.229-32.1-70.229-70.229 0-30.094 20.068-56.178 48.156-66.219 36.11-110.35 140.459-192.626 262.841-192.626 152.491 0 274.887 124.402 274.887 274.887v501.618h36.11v190.62zM730.237 484.051c13.319-13.319 18.397-29.834 11.344-36.887s-23.569-1.975-36.887 11.344c-13.319 13.319-18.397 29.834-11.344 36.887s23.569 1.975 36.887-11.344zM267.943 485.349c13.319-13.319 18.397-29.834 11.344-36.887s-23.569-1.975-36.887 11.344c-13.319 13.319-18.397 29.834-11.344 36.887s23.569 1.975 36.887-11.344z" />
<glyph unicode="&#xe929;" glyph-name="sea" d="M898.844 671.716c-25.173 19.342-54.756 44.516-112.924 44.516s-87.893-25.173-112.924-44.516-36.551-29.724-69.547-29.724-49.067 12.516-69.547 29.724c-29.51 27.54-69.236 44.464-112.914 44.516h-0.010c-58.169 0-87.893-25.173-112.924-44.516s-36.551-29.724-69.547-29.724-49.067 12.516-69.547 29.724c-29.495 27.745-69.133 45-112.795 45.652l-0.129 0.002h-34.702v-68.409h34.276c33.138 0 49.067-12.516 69.547-29.724 29.51-27.54 69.236-44.464 112.914-44.516h0.010c58.169 0 87.893 25.173 112.924 44.516s36.551 29.724 69.547 29.724 48.782-12.658 69.831-30.293c29.51-27.54 69.236-44.464 112.914-44.516h0.010c58.169 0 87.893 25.173 112.924 44.516s36.551 29.724 69.547 29.724 49.067-12.516 69.547-29.724c29.629-27.332 69.277-44.195 112.86-44.515h34.483v68.978h-34.276c-0.442-0.007-0.963-0.012-1.485-0.012-26.654 0-50.752 10.944-68.046 28.583l-0.015 0.015zM898.844 474.311c-25.173 19.342-54.756 44.8-112.924 44.8s-87.893-25.173-112.924-44.516-36.551-29.724-69.547-29.724-49.067 12.516-69.547 29.724c-29.555 27.582-69.358 44.516-113.116 44.516-0.033 0-0.065 0-0.098 0h0.005c-58.169 0-87.893-25.173-112.924-44.516s-36.551-29.724-69.547-29.724-49.067 12.516-69.547 29.724c-29.664 27.363-69.368 44.233-113.010 44.515h-34.333v-68.409h34.276c33.138 0 49.067-12.516 69.547-29.724 29.51-27.54 69.236-44.464 112.914-44.516h0.010c58.169 0 87.893 25.173 112.924 44.516s36.551 29.724 69.547 29.724 49.067-12.516 69.547-29.724c29.51-27.54 69.236-44.464 112.914-44.516h0.010c58.169 0 87.893 25.173 112.924 44.516s36.551 29.724 69.547 29.724 49.067-12.516 69.547-29.724c29.658-26.483 69.005-42.669 112.132-42.669 0.278 0 0.557 0.001 0.835 0.002h34.659v67.413h-34.276c-0.442-0.007-0.963-0.012-1.485-0.012-26.654 0-50.752 10.944-68.046 28.583l-0.015 0.015zM898.844 277.333c-25.173 19.342-54.756 44.516-112.924 44.516s-87.893-25.6-113.067-44.516-36.551-29.724-69.547-29.724-48.64 12.089-69.689 29.724c-29.51 27.54-69.236 44.464-112.914 44.516h-0.010c-58.169 0-87.893-25.173-112.924-44.516s-36.551-29.724-69.547-29.724-49.067 12.516-69.547 29.724c-29.629 27.332-69.277 44.195-112.86 44.515h-34.483v-68.409h34.276c33.138 0 49.067-12.516 69.547-29.724 29.51-27.54 69.236-44.464 112.914-44.516h0.010c58.169 0 87.893 25.173 112.924 44.516s36.551 29.724 69.547 29.724 49.067-12.516 69.547-29.724c29.51-27.54 69.236-44.464 112.914-44.516h0.010c58.169 0 87.893 25.173 112.924 44.516s36.551 29.724 69.547 29.724 49.067-12.516 69.547-29.724c29.629-27.332 69.277-44.195 112.86-44.515h34.767v67.982h-34.276c-32.996 0-49.067 12.516-69.547 30.151z" />
<glyph unicode="&#xe92a;" glyph-name="caret-right-2" d="M394.667 181.049c-17.714 0.049-32.056 14.421-32.056 32.142 0 8.819 3.552 16.808 9.303 22.616l212.050 212.193-212.053 212.053c-6.677 5.918-10.864 14.515-10.864 24.091 0 17.752 14.391 32.142 32.142 32.142 9.575 0 18.173-4.187 24.061-10.83l0.029-0.034 234.809-234.667c5.825-5.796 9.43-13.819 9.43-22.684s-3.605-16.888-9.428-22.683l-234.81-234.81c-5.792-5.799-13.798-9.387-22.642-9.387-0.040 0-0.080 0-0.12 0h0.006z" />
<glyph unicode="&#xe92b;" glyph-name="length" d="M958.578 485.831c-9.679 9.687-23.055 15.68-37.83 15.68-23.86 0-44.070-15.626-50.955-37.203l-0.104-0.379h-715.378c-7.022 21.901-27.205 37.476-51.026 37.476-29.534 0-53.476-23.942-53.476-53.476s23.942-53.476 53.476-53.476c23.821 0 44.004 15.575 50.921 37.097l0.105 0.379h715.378c7.021-21.903 27.205-37.48 51.027-37.48 29.534 0 53.476 23.942 53.476 53.476 0 14.743-5.966 28.092-15.615 37.765l0.001-0.001zM118.471 432.782c-3.889-3.906-9.271-6.322-15.218-6.322-11.861 0-21.476 9.615-21.476 21.476s9.615 21.476 21.476 21.476c11.838 0 21.439-9.578 21.475-21.408v-0.004c0-0.019 0-0.042 0-0.065 0-5.914-2.391-11.27-6.259-15.154l0.001 0.001zM935.964 432.782c-3.889-3.906-9.271-6.322-15.218-6.322-11.861 0-21.476 9.615-21.476 21.476s9.615 21.476 21.476 21.476c11.838 0 21.439-9.578 21.475-21.408v-0.004c0-0.019 0-0.042 0-0.065 0-5.914-2.391-11.27-6.259-15.154l0.001 0.001z" />
<glyph unicode="&#xe92c;" glyph-name="view-360" d="M369.778 433.778c7.225-9.854 11.561-22.22 11.561-35.598 0-0.785-0.015-1.567-0.045-2.345l0.003 0.112c0.007-0.366 0.011-0.799 0.011-1.232 0-20.088-8.587-38.171-22.291-50.777l-0.049-0.045c-14.044-13.247-33.030-21.39-53.917-21.39-1.045 0-2.086 0.020-3.121 0.061l0.149-0.005c-0.746-0.027-1.623-0.043-2.504-0.043-18.705 0-35.783 6.971-48.775 18.457l0.079-0.068c-13.269 11.999-21.971 28.833-23.312 47.702l-0.013 0.227 28.444 3.84c1.845-13.791 7.9-25.913 16.808-35.299l-0.026 0.028c7.369-6.705 17.206-10.811 28.003-10.811 0.155 0 0.31 0.001 0.465 0.003h-0.024c0.254-0.005 0.553-0.008 0.853-0.008 13.123 0 24.973 5.452 33.408 14.215l0.014 0.015c8.786 8.605 14.233 20.589 14.233 33.846 0 0.351-0.004 0.701-0.011 1.051l0.001-0.052c0.016 0.442 0.025 0.961 0.025 1.482 0 12.202-4.957 23.245-12.966 31.228l-0.001 0.001c-8.076 7.93-19.156 12.824-31.378 12.824-0.519 0-1.035-0.009-1.55-0.026l0.075 0.002c-7.32-0.206-14.293-1.335-20.92-3.275l0.582 0.146 3.129 25.316h4.693c0.264-0.004 0.575-0.007 0.887-0.007 11.989 0 23.147 3.557 32.476 9.674l-0.225-0.139c8.691 5.999 14.314 15.904 14.314 27.123 0 0.866-0.033 1.723-0.099 2.572l0.007-0.112c0.006 0.245 0.009 0.534 0.009 0.823 0 6.323-1.638 12.264-4.512 17.421l0.093-0.182c-1.723 3.172-3.806 5.89-6.247 8.239l-0.011 0.010c-2.211 2.209-4.739 4.101-7.508 5.604l-0.172 0.085c-5.525 2.962-12.087 4.702-19.055 4.702-0.301 0-0.601-0.003-0.901-0.010l0.045 0.001c-0.495 0.022-1.075 0.035-1.658 0.035-10.365 0-19.792-4.017-26.808-10.58l0.022 0.021-1.849-1.991c-6.052-7.116-10.256-15.979-11.767-25.733l-0.037-0.293c0-1.28 0-2.418 0-3.698l-28.729 5.262c1.081 6.251 2.661 11.792 4.753 17.075l-0.202-0.578c4.065 11.376 10.767 20.964 19.396 28.37l0.089 0.074c11.643 9.233 26.549 14.812 42.758 14.812 1.67 0 3.325-0.059 4.965-0.176l-0.22 0.013c0.21 0.002 0.458 0.003 0.706 0.003 12.61 0 24.507-3.050 34.994-8.453l-0.429 0.201c8.206-4.050 15.088-9.613 20.532-16.381l0.091-0.117c1.421-1.714 2.782-3.618 4.003-5.617l0.122-0.214c1.138-1.991 2.276-3.982 3.129-6.116 3.323-7.008 5.263-15.226 5.263-23.898 0-0.098 0-0.197-0.001-0.295v0.015c0.001-0.132 0.002-0.289 0.002-0.445 0-10.102-3.027-19.498-8.223-27.329l0.114 0.183c-5.994-8.708-14.201-15.498-23.819-19.632l-0.359-0.137c13.24-2.601 24.492-9.721 32.34-19.655l0.087-0.114zM543.004 457.956c12.554-13.548 20.255-31.749 20.255-51.748 0-1.058-0.022-2.111-0.064-3.158l0.005 0.15c0.001-0.14 0.001-0.306 0.001-0.473 0-14.595-3.468-28.381-9.624-40.577l0.236 0.516c-6.011-11.892-14.939-21.551-25.867-28.272l-0.302-0.173c-10.433-6.349-23.048-10.107-36.542-10.107-0.403 0-0.806 0.003-1.208 0.010l0.060-0.001c-0.625-0.019-1.359-0.030-2.096-0.030-22.701 0-43.008 10.248-56.549 26.37l-0.093 0.113q-22.613 26.453-22.613 87.182 0 67.556 24.747 98.418v0c1.564 1.991 3.271 3.698 4.978 5.547 13.118 13.208 31.288 21.383 51.368 21.383 0.941 0 1.879-0.018 2.811-0.054l-0.134 0.004c0.822 0.037 1.786 0.057 2.755 0.057 16.281 0 31.188-5.883 42.71-15.639l-0.097 0.080 3.84-3.698c4.248-4.422 7.818-9.538 10.515-15.152l0.151-0.35c3.303-6.873 5.662-14.853 6.65-23.252l0.034-0.357-28.444-2.276c-1.61 9.425-5.425 17.755-10.898 24.722l0.089-0.118c-2.175 2.29-4.6 4.308-7.241 6.021l-0.155 0.094c-5.822 3.839-12.963 6.125-20.637 6.125-0.295 0-0.589-0.003-0.882-0.010l0.044 0.001c-0.073 0-0.159 0.001-0.245 0.001-5.647 0-11.038-1.097-15.971-3.090l0.286 0.102c-3.095-1.349-5.761-2.92-8.207-4.766l0.101 0.073c-9.479-7.27-16.813-16.891-21.18-28.002l-0.153-0.442c-5.297-14.728-8.359-31.721-8.359-49.43 0-2.023 0.040-4.037 0.119-6.040l-0.009 0.288c6.323 9.937 14.924 17.901 25.098 23.293l0.36 0.174c9.17 4.836 20.039 7.676 31.572 7.68h0.001c0.231 0.003 0.505 0.005 0.778 0.005 19.037 0 36.17-8.149 48.103-21.148l0.043-0.048zM533.902 401.067c0.052 0.886 0.081 1.923 0.081 2.967 0 13.506-4.928 25.86-13.084 35.364l0.061-0.073c-7.847 8.75-19.188 14.229-31.808 14.229-0.268 0-0.535-0.002-0.801-0.007l0.040 0.001c-0.19 0.003-0.415 0.005-0.64 0.005-12.834 0-24.392-5.466-32.472-14.198l-0.027-0.029c-8.813-9.058-14.248-21.442-14.248-35.095 0-0.562 0.009-1.122 0.027-1.68l-0.002 0.081c0-0.061 0-0.133 0-0.205 0-10.251 2.307-19.963 6.431-28.645l-0.173 0.405c3.832-8.639 9.89-15.703 17.455-20.654l0.18-0.111c6.746-4.43 15.007-7.078 23.885-7.111h0.009c0.116-0.001 0.252-0.002 0.389-0.002 12.339 0 23.395 5.494 30.855 14.17l0.045 0.054c8.199 9.914 13.173 22.758 13.173 36.763 0 1.126-0.032 2.245-0.096 3.355l0.007-0.154zM743.111 476.444c1.001-9.357 1.572-20.212 1.572-31.2 0-0.781-0.003-1.562-0.009-2.342l0.001 0.12c0.059-1.884 0.093-4.1 0.093-6.324 0-21.467-3.152-42.198-9.018-61.755l0.391 1.519c-4.628-15.862-13.347-29.32-24.944-39.604l-0.087-0.076c-11.055-8.88-25.257-14.251-40.713-14.251-0.687 0-1.371 0.011-2.053 0.032l0.1-0.002c-0.813-0.037-1.766-0.058-2.725-0.058-20.387 0-38.562 9.469-50.367 24.249l-0.1 0.129q-23.182 29.298-23.182 95.289c-0.066 1.978-0.103 4.303-0.103 6.637 0 21.458 3.155 42.179 9.028 61.724l-0.391-1.517c1.262 3.753 2.512 6.81 3.925 9.774l-0.227-0.53c3.085 7.279 6.854 13.559 11.363 19.223l-0.127-0.165c11.523 14.986 29.458 24.548 49.626 24.548 1.154 0 2.301-0.031 3.439-0.093l-0.159 0.007c0.46 0.011 1.002 0.017 1.546 0.017 11.526 0 22.4-2.793 31.983-7.738l-0.391 0.183c9.704-4.988 17.697-12.070 23.612-20.691l0.14-0.215c3.389-5.107 6.448-10.962 8.879-17.134l0.223-0.643c1.926-4.604 3.824-10.29 5.34-16.13l0.207-0.937c1.428-6.299 2.539-13.839 3.099-21.531l0.030-0.514zM714.667 443.022c0.015 1.093 0.023 2.383 0.023 3.675 0 15.014-1.146 29.76-3.355 44.156l0.203-1.609c-1.218 11.167-4.763 21.297-10.14 30.196l0.185-0.329c-1.138 1.707-2.418 3.271-3.698 4.693-7.169 8.704-17.945 14.214-30.007 14.222h-0.001c-0.38 0.014-0.826 0.022-1.273 0.022-6.638 0-12.867-1.749-18.252-4.811l0.183 0.096c-4.895-3.059-8.972-6.955-12.142-11.527l-0.089-0.135c-1.766-2.576-3.386-5.522-4.708-8.625l-0.127-0.335c-6.464-18.099-10.2-38.978-10.2-60.729 0-3.352 0.089-6.683 0.264-9.991l-0.020 0.462q0-57.742 14.222-76.8c6.794-11.575 19.18-19.224 33.351-19.224s26.557 7.649 33.253 19.043l0.098 0.181q14.222 19.2 13.511 76.658zM796.444 558.933c0.002-0.133 0.004-0.29 0.004-0.448 0-7.956-3.267-15.15-8.532-20.312l-0.005-0.005c-5.162-5.24-12.335-8.486-20.267-8.486s-15.104 3.246-20.263 8.482l-0.003 0.003c-5.278 5.276-8.542 12.566-8.542 20.619 0 0.251 0.003 0.502 0.009 0.752l-0.001-0.037c-0.001 0.084-0.001 0.184-0.001 0.284 0 7.785 3.275 14.805 8.522 19.757l0.013 0.012c5.14 5.241 12.284 8.499 20.189 8.533h0.006c0.072 0.001 0.157 0.001 0.243 0.001 7.842 0 14.92-3.271 19.943-8.524l0.010-0.010c5.353-5.179 8.676-12.428 8.676-20.452 0-0.060 0-0.119-0.001-0.179v0.009zM784.924 558.933c0.002 0.096 0.003 0.21 0.003 0.323 0 4.704-1.903 8.963-4.981 12.050v0c-2.908 2.906-6.925 4.704-11.361 4.704-0.206 0-0.411-0.004-0.615-0.012l0.029 0.001c-9.364-0.081-16.924-7.69-16.924-17.066 0 0 0 0 0-0.001v0c-0.005-0.162-0.009-0.352-0.009-0.544 0-4.725 1.904-9.006 4.988-12.116l-0.001 0.001c3.011-3.157 7.249-5.12 11.947-5.12s8.936 1.963 11.94 5.113l0.006 0.007c3.078 3.065 4.982 7.306 4.982 11.992 0 0.134-0.002 0.268-0.005 0.401v-0.020zM883.342 630.187c-68.251 138.311-208.283 231.777-370.146 231.777-12.437 0-24.744-0.552-36.9-1.632l1.571 0.113c-8.463-0.72-15.060-7.767-15.060-16.356 0-9.064 7.348-16.411 16.411-16.411 0.476 0 0.946 0.020 1.412 0.060l-0.061-0.004c9.932 0.92 21.479 1.444 33.149 1.444 210.506 0 381.156-170.649 381.156-381.156s-170.649-381.156-381.156-381.156c-210.506 0-381.156 170.649-381.156 381.156 0 141.944 77.591 265.766 192.672 331.367l1.876 0.985-3.556-29.867c-0.031-0.351-0.048-0.759-0.048-1.171 0-7.068 5.156-12.932 11.913-14.036l0.082-0.011h1.564c0.048-0.001 0.104-0.001 0.161-0.001 7.102 0 12.988 5.206 14.051 12.010l0.010 0.080 6.969 59.164c0.031 0.351 0.048 0.759 0.048 1.171 0 7.068-5.156 12.932-11.913 14.036l-0.082 0.011-59.164 6.969c-6.79-1.157-11.895-6.998-11.895-14.030 0-5.886 3.575-10.937 8.673-13.099l0.093-0.035 12.516-1.422c-119.399-73.941-197.745-204.219-197.745-352.795 0-228.415 185.167-413.582 413.582-413.582s413.582 185.167 413.582 413.582c0 66.589-15.737 129.502-43.694 185.223l1.083-2.383z" />
<glyph unicode="&#xe92d;" glyph-name="width" d="M756.196 534.613l65.28-64.996h-618.951l65.28 64.996-30.293 30.436-117.618-117.049 15.36-15.218 102.258-101.831 30.293 30.436-65.28 64.996h618.951l-65.28-64.996 30.293-30.436 117.618 117.049-15.36 15.218-102.258 101.831-30.293-30.436zM49.778 695.893h43.093v-495.929h-43.093v495.929zM931.129 695.893h43.093v-495.929h-43.093v495.929z" />
<glyph unicode="&#xe92e;" glyph-name="caret-left-2" d="M629.333 714.951c17.714-0.049 32.056-14.421 32.056-32.142 0-8.819-3.552-16.808-9.303-22.616l-212.050-212.193 212.053-212.053c4.999-5.639 8.052-13.102 8.052-21.278 0-17.752-14.391-32.142-32.142-32.142-8.176 0-15.639 3.053-21.312 8.081l0.034-0.029-234.809 234.667c-5.825 5.796-9.43 13.819-9.43 22.684s3.605 16.888 9.428 22.683l234.81 234.81c5.792 5.799 13.798 9.387 22.642 9.387 0.040 0 0.080 0 0.12 0h-0.006z" />
<glyph unicode="&#xe92f;" glyph-name="pdf-file" d="M723.484 413.867h-346.88c-8.562 0-15.502-6.941-15.502-15.502s6.941-15.502 15.502-15.502h346.88c8.562 0 15.502 6.941 15.502 15.502s-6.941 15.502-15.502 15.502v0zM723.484 502.756h-346.88c-8.529-0.080-15.423-6.973-15.502-15.495v-0.008c-0.041-0.403-0.064-0.87-0.064-1.344 0-7.855 6.368-14.222 14.222-14.222 0.473 0 0.941 0.023 1.402 0.068l-0.058-0.005h346.88c8.562 0 15.502 6.941 15.502 15.502s-6.941 15.502-15.502 15.502v0zM272.213 707.84h-7.68v-27.022h5.689c19.342 0 21.902 7.68 21.902 14.222 0 3.84 0 12.942-20.622 12.942zM361.102 707.84c-0.371 0.009-0.809 0.015-1.247 0.015-4.145 0-8.181-0.472-12.055-1.364l0.36 0.070v-65.707h11.662c0.618-0.051 1.337-0.079 2.064-0.079 9.131 0 17.198 4.553 22.056 11.512l0.058 0.087c4.195 6.578 6.725 14.574 6.826 23.155v0.027c-1.28 23.182-10.382 32.284-29.724 32.284zM543.004 731.022c0.004 0.214 0.007 0.465 0.007 0.718 0 20.972-17.001 37.973-37.973 37.973-0.252 0-0.504-0.002-0.755-0.007l0.038 0.001h-276.053c-0.214 0.004-0.465 0.007-0.718 0.007-20.972 0-37.973-17.001-37.973-37.973 0-0.252 0.002-0.504 0.007-0.755l-0.001 0.038v-112.356c-0.004-0.214-0.007-0.465-0.007-0.718 0-20.972 17.001-37.973 37.973-37.973 0.252 0 0.504 0.002 0.755 0.007l-0.038-0.001h275.911c0.256-0.006 0.558-0.010 0.86-0.010 20.972 0 37.973 17.001 37.973 37.973 0 0.253-0.002 0.506-0.007 0.759l0.001-0.038zM301.227 667.876c-8.878-6.501-20.015-10.403-32.063-10.403-0.528 0-1.054 0.007-1.578 0.022l0.077-0.002h-4.551v-38.827h-21.333v107.236l3.84 1.28c7.806 1.268 17.123 2.186 26.584 2.547l0.438 0.013c1.003 0.077 2.172 0.12 3.351 0.12 10.407 0 20.019-3.408 27.779-9.169l-0.125 0.089c7.441-5.76 12.347-14.484 12.938-24.37l0.004-0.092c-0.071-11.576-5.597-21.848-14.136-28.381l-0.087-0.064zM401.92 638.151c-10.159-11.159-24.745-18.135-40.961-18.135-1 0-1.995 0.027-2.982 0.079l0.138-0.006c-6.4 0-14.222 1.28-28.444 2.56h-3.84v103.253h3.84c15.502 1.28 25.742 2.56 31.004 2.56 1.223 0.108 2.646 0.17 4.083 0.17 14.809 0 28.090-6.542 37.112-16.893l0.050-0.059c6.677-8.745 10.698-19.828 10.698-31.851 0-1.504-0.063-2.994-0.186-4.466l0.013 0.192c0.113-1.288 0.178-2.788 0.178-4.302 0-12.607-4.47-24.171-11.911-33.192l0.071 0.089zM492.373 706.56h-46.080v-19.342h42.667v-23.182h-42.667v-43.947h-24.604v109.653h71.111zM581.689 865.138h-277.333c-21.42-0.236-38.694-17.655-38.694-39.109 0-0.301 0.003-0.601 0.010-0.9l-0.001 0.044v-38.684h32.284v20.622c-0.013 0.297-0.020 0.646-0.020 0.997 0 13.574 10.929 24.596 24.468 24.745h259.285v-181.76c-0.004-0.214-0.007-0.465-0.007-0.718 0-20.972 17.001-37.973 37.973-37.973 0.252 0 0.504 0.002 0.755 0.007l-0.038-0.001h181.76v-447.431c-0.080-14.185-11.558-25.662-25.735-25.742h-116.061c-1.28-1.28-1.28-2.56-2.56-3.84l-20.764-25.884h157.44c0.347-0.011 0.754-0.017 1.163-0.017 20.949 0 38.024 16.592 38.799 37.351l0.002 0.071v465.493zM439.751 139.236h-116.053c-0.091-0.001-0.197-0.002-0.305-0.002-13.667 0-24.747 11.079-24.747 24.747 0 0.351 0.007 0.7 0.022 1.047l-0.002-0.050v395.804h-32.996v-415.147c-0.002-0.139-0.003-0.302-0.003-0.466 0-20.422 16.556-36.978 36.978-36.978 0.601 0 1.199 0.014 1.794 0.043l-0.084-0.003h158.578l-20.622 25.742c-1.28 2.56-2.56 3.84-2.56 5.12zM634.453 162.418h-41.244v142.222c-0.047 9.517-7.389 17.304-16.718 18.058l-0.064 0.004h-51.484c-9.679-0.705-17.357-8.383-18.059-17.999l-0.004-0.064v-142.222h-41.244c-5.475-0.409-9.763-4.952-9.763-10.497 0-2.368 0.782-4.554 2.103-6.313l-0.020 0.027 85.333-110.933c2.022-2.4 5.030-3.914 8.391-3.914s6.369 1.514 8.378 3.898l0.014 0.016 85.333 110.933c0.399 1.19 0.629 2.561 0.629 3.985 0 6.466-4.742 11.825-10.938 12.788l-0.073 0.009z" />
<glyph unicode="&#xe930;" glyph-name="mag-glass" d="M900.409 120.889l-193.28 184.889c38.796 52.687 62.089 118.871 62.089 190.494 0 178.538-144.733 323.271-323.271 323.271s-323.271-144.733-323.271-323.271c0-178.538 144.733-323.271 323.271-323.271 86.971 0 165.921 34.345 224.026 90.211l-0.106-0.102 191.431-183.182zM445.298 228.124c-146.525 0.162-265.244 118.981-265.244 265.529 0 146.648 118.881 265.529 265.529 265.529 146.598 0 265.448-118.8 265.529-265.379v-0.008c-0.161-146.483-118.784-265.205-265.213-265.529h-0.031z" />
<glyph unicode="&#xe931;" glyph-name="map-pin-solid-2" d="M796.444 804.409c-73.677 70.478-173.781 113.86-284.018 113.86s-210.34-43.382-284.17-114.005l0.153 0.145c-72.486-69.657-117.519-167.418-117.519-275.698s45.033-206.041 117.392-275.576l0.127-0.121 283.591-275.2 284.444 275.2c72.486 69.657 117.519 167.418 117.519 275.698s-45.033 206.041-117.392 275.576l-0.127 0.121z" />
<glyph unicode="&#xe932;" glyph-name="map-pin" d="M512 865.28c-156.351-0.162-283.064-126.825-283.307-283.141v-0.023c0-151.040 257.707-527.787 269.084-543.716l14.222-21.333 14.222 21.333c10.951 15.929 268.658 392.676 268.658 543.716-0.242 156.19-126.712 282.76-282.841 283.164h-0.039zM512 829.724c136.714-0.162 247.509-110.906 247.751-247.586v-0.023c0-120.747-197.973-426.667-247.751-501.76-49.778 75.093-247.751 381.013-247.751 501.76 0.243 136.703 111.037 247.447 247.736 247.609h0.015zM509.298 379.307c112.008 0 202.809 90.801 202.809 202.809s-90.801 202.809-202.809 202.809c-112.008 0-202.809-90.801-202.809-202.809v0c-0.007-0.637-0.011-1.391-0.011-2.145 0-110.83 89.846-200.676 200.676-200.676 0.754 0 1.507 0.004 2.259 0.012l-0.115-0.001zM509.298 749.084c92.371 0 167.253-74.882 167.253-167.253s-74.882-167.253-167.253-167.253v0c-0.554-0.007-1.208-0.010-1.863-0.010-91.35 0-165.404 74.054-165.404 165.404 0 0.754 0.005 1.506 0.015 2.258l-0.001-0.114c0.081 92.339 74.915 167.172 167.246 167.253h0.008z" />
<glyph unicode="&#xe933;" glyph-name="files" d="M736.284 744.96l-4.836 4.836h56.889v-91.591h80.213v-630.756h-517.12v34.276h384.853v48.356h93.298v33.138h-93.298v48.782h93.298v33.28h-93.298v48.782h91.876v32.996h-91.876v47.218h91.876v33.138h-91.876v44.089h91.876v32.996h-91.876v50.204h91.876v32.853h-91.876v45.796h91.876v32.996h-91.876zM154.88 836.551h437.333v-91.591h80.213v-630.756h-517.547zM91.022 888.889v-827.164h196.693v-86.756h645.262v682.667l-92.302 92.302-51.769 52.196h-109.796l-34.987 34.987-51.911 51.769zM351.431 680.249h280.178v32.996h-435.769v-32.996h155.591zM351.431 601.6h280.178v32.996h-437.333v-32.996h157.156zM351.431 518.258h280.178v32.996h-437.333v-32.996h157.156zM351.431 441.173h280.178v32.996h-437.333v-32.996h157.156zM351.431 360.96h280.178v32.996h-437.333v-32.996h157.156zM287.716 312.178h-91.876v-32.996h437.191v32.996h-345.316zM392.391 196.978h240.64v32.996h-437.191v-32.996h196.551z" />
<glyph unicode="&#xe934;" glyph-name="x2" d="M512 533.197l-362.035 362.035-72.397-72.397 362.035-362.035-362.035-362.035 72.397-72.397 362.035 362.035 362.035-362.035 72.397 72.397-362.035 362.035 362.035 362.035-72.397 72.397-362.035-362.035z" />
<glyph unicode="&#xe935;" glyph-name="menu2" d="M0 819.2h1024v-102.4h-1024v102.4zM0 512h1024v-102.4h-1024v102.4zM0 204.8h1024v-102.4h-1024v102.4z" />
<glyph unicode="&#xea90;" glyph-name="facebook" d="M608 768h160v192h-160c-123.514 0-224-100.486-224-224v-96h-128v-192h128v-512h192v512h160l32 192h-192v96c0 17.346 14.654 32 32 32z" />
<glyph unicode="&#xea92;" glyph-name="instagram" d="M512 867.8c136.8 0 153-0.6 206.8-3 50-2.2 77-10.6 95-17.6 23.8-9.2 41-20.4 58.8-38.2 18-18 29-35 38.4-58.8 7-18 15.4-45.2 17.6-95 2.4-54 3-70.2 3-206.8s-0.6-153-3-206.8c-2.2-50-10.6-77-17.6-95-9.2-23.8-20.4-41-38.2-58.8-18-18-35-29-58.8-38.4-18-7-45.2-15.4-95-17.6-54-2.4-70.2-3-206.8-3s-153 0.6-206.8 3c-50 2.2-77 10.6-95 17.6-23.8 9.2-41 20.4-58.8 38.2-18 18-29 35-38.4 58.8-7 18-15.4 45.2-17.6 95-2.4 54-3 70.2-3 206.8s0.6 153 3 206.8c2.2 50 10.6 77 17.6 95 9.2 23.8 20.4 41 38.2 58.8 18 18 35 29 58.8 38.4 18 7 45.2 15.4 95 17.6 53.8 2.4 70 3 206.8 3zM512 960c-139 0-156.4-0.6-211-3-54.4-2.4-91.8-11.2-124.2-23.8-33.8-13.2-62.4-30.6-90.8-59.2-28.6-28.4-46-57-59.2-90.6-12.6-32.6-21.4-69.8-23.8-124.2-2.4-54.8-3-72.2-3-211.2s0.6-156.4 3-211c2.4-54.4 11.2-91.8 23.8-124.2 13.2-33.8 30.6-62.4 59.2-90.8 28.4-28.4 57-46 90.6-59 32.6-12.6 69.8-21.4 124.2-23.8 54.6-2.4 72-3 211-3s156.4 0.6 211 3c54.4 2.4 91.8 11.2 124.2 23.8 33.6 13 62.2 30.6 90.6 59s46 57 59 90.6c12.6 32.6 21.4 69.8 23.8 124.2 2.4 54.6 3 72 3 211s-0.6 156.4-3 211c-2.4 54.4-11.2 91.8-23.8 124.2-12.6 34-30 62.6-58.6 91-28.4 28.4-57 46-90.6 59-32.6 12.6-69.8 21.4-124.2 23.8-54.8 2.6-72.2 3.2-211.2 3.2v0zM512 711c-145.2 0-263-117.8-263-263s117.8-263 263-263 263 117.8 263 263c0 145.2-117.8 263-263 263zM512 277.4c-94.2 0-170.6 76.4-170.6 170.6s76.4 170.6 170.6 170.6c94.2 0 170.6-76.4 170.6-170.6s-76.4-170.6-170.6-170.6zM846.8 721.4c0-33.91-27.49-61.4-61.4-61.4s-61.4 27.49-61.4 61.4c0 33.91 27.49 61.4 61.4 61.4s61.4-27.49 61.4-61.4z" />
<glyph unicode="&#xea9d;" glyph-name="youtube" d="M1013.8 652.8c0 0-10 70.6-40.8 101.6-39 40.8-82.6 41-102.6 43.4-143.2 10.4-358.2 10.4-358.2 10.4h-0.4c0 0-215 0-358.2-10.4-20-2.4-63.6-2.6-102.6-43.4-30.8-31-40.6-101.6-40.6-101.6s-10.2-82.8-10.2-165.8v-77.6c0-82.8 10.2-165.8 10.2-165.8s10-70.6 40.6-101.6c39-40.8 90.2-39.4 113-43.8 82-7.8 348.2-10.2 348.2-10.2s215.2 0.4 358.4 10.6c20 2.4 63.6 2.6 102.6 43.4 30.8 31 40.8 101.6 40.8 101.6s10.2 82.8 10.2 165.8v77.6c-0.2 82.8-10.4 165.8-10.4 165.8zM406.2 315.2v287.8l276.6-144.4-276.6-143.4z" />
<glyph unicode="&#xeaca;" glyph-name="linkedin" d="M384 576h177.106v-90.782h2.532c24.64 44.194 84.958 90.782 174.842 90.782 186.946 0 221.52-116.376 221.52-267.734v-308.266h-184.61v273.278c0 65.184-1.334 149.026-96.028 149.026-96.148 0-110.82-70.986-110.82-144.292v-278.012h-184.542v576zM64 576h192v-576h-192v576zM256 736c0-53.019-42.981-96-96-96s-96 42.981-96 96c0 53.019 42.981 96 96 96s96-42.981 96-96z" />
</font>
</defs>
</svg>
